История Аси Клячиной, которая любила, да не вышла замуж (1967) DVDRip-AVC от KORSAR

 Статистика раздачи 
Размер: 1.86 ГБ   |  Зарегистрирован: 15 авг 2018, 06:34   |   .torrent скачан: 232 раз
Сидеров: 10  [ 0 байт/сек ]     Личеров: 1  [ 0 байт/сек ]  
  
Аватара пользователя
 
Раздал: 3.62 ТБ
Скачал: 100.95 ГБ
Ратио: 36.720
Сообщения: 200870
Стаж: 1 год 8 месяцев 24 дня

Жанр: драма, мелодрама
Год выпуска: 1967
Продолжительность: 01:33:34
Режиссёр: Андрей Кончаловский
В ролях:Ия Саввина, Александр Сурин, Геннадий Егорычев, Любовь Соколова, Иван Петров, Михаил Кислов, Борис Парфенов, Сергей Парфенов, Наталья Серова, Федор Родионычев
Описание: Фильм о любви кроткой, нежной и гордой Аси–хромоножки к непутевому шоферу Степану, снятый в 1967 году, в советское время не удостоился чести быть показанным «первым экраном» под оригинальным авторским названием. Широкое признание к этой талантливой картине пришло лишь через два десятилетия.

Релиз от:
Кодек: х264
Качество: DVDRip-AVC
Видео: MPEG-4 AVC, 718x576@765x576, 25 fps, 2123 Кбит/с
Звук: AC3, 6 ch, 448 Кбит/с, AC3, 1 ch, 224 Кбит/с

    x264 [info]: frame I:691 Avg QP:17.61 size: 52672
    x264 [info]: frame P:32923 Avg QP:18.93 size: 24253
    x264 [info]: frame B:106750 Avg QP:21.21 size: 6497
Общее
Уникальный идентификатор : 192617985571125891591432055500364922270 (0x90E8DFE75A0E2946A95FC9E8DA3D3D9E)
Полное имя : D:История Аси Клячиной, которая любила, да не вышла замуж_1967-DVDRip-AVC_KORSAR.mkv
Формат : Matroska
Версия формата : Version 2
Размер файла : 1,86 Гбайт
Продолжительность : 1 ч. 33 м.
Общий поток : 2852 Кбит/сек
Название фильма : История Аси Клячиной, которая любила, да не вышла замуж_1967-DVDRip-AVC_KORSAR
Дата кодирования : UTC 2018-06-05 15:55:51
Программа кодирования : mkvmerge v5.8.0 ('No Sleep / Pillow') built on Sep 2 2012 15:37:04
Библиотека кодирования : libebml v1.2.3 + libmatroska v1.3.0
Видео
Идентификатор : 1
Формат : AVC
Формат/Информация : Advanced Video Codec
Профиль формата : High@L4.1
Параметр CABAC формата : Да
Параметр RefFrames формата : 15 кадров
Идентификатор кодека : V_MPEG4/ISO/AVC
Продолжительность : 1 ч. 33 м.
Битрейт : 2123 Кбит/сек
Ширина : 718 пикселей
Высота : 576 пикселей
Соотношение сторон : 4:3
Соотношение сторон в оригинале : 4:3
Режим частоты кадров : Постоянный
Частота кадров : 25,000 кадров/сек
Цветовое пространство : YUV
Субдискретизация насыщенности : 4:2:0
Битовая глубина : 8 бит
Тип развёртки : Прогрессивная
Бит/(Пиксели*Кадры) : 0.205
Размер потока : 1,39 Гбайт (74%)
Библиотека кодирования : x264 core 152 r2851kMod ba24899
Настройки программы : cabac=1 / ref=15 / deblock=1:-2:-1 / analyse=0x3:0x133 / me=umh / subme=10 / psy=1 / fade_compensate=0.00 / psy_rd=1.05:0.12 / mixed_ref=1 / me_range=32 / chroma_me=1 / trellis=2 / 8x8dct=1 / cqm=0 / deadzone=21,11 / fast_pskip=1 / chroma_qp_offset=-3 / threads=12 / lookahead_threads=2 / sliced_threads=0 / nr=0 / decimate=1 / interlaced=0 / bluray_compat=0 / constrained_intra=0 / bframes=9 / b_pyramid=2 / b_adapt=2 / b_bias=0 / direct=1 / weightb=1 / open_gop=0 / weightp=2 / keyint=250 / keyint_min=25 / scenecut=40 / intra_refresh=0 / rc=crf / mbtree=0 / crf=18.0000 / qcomp=0.63 / qpmin=0 / qpmax=39 / qpstep=4 / ip_ratio=1.40 / pb_ratio=1.30 / aq=1:1.00
Язык : English
Default : Да
Forced : Нет
Цветовой диапазон : Limited
Основные цвета : BT.601 PAL
Характеристики трансфера : BT.470 System B, BT.470 System G
Коэффициенты матрицы : BT.601
Аудио #1
Идентификатор : 2
Формат : AC-3
Формат/Информация : Audio Coding 3
Параметр Endianness формата : Big
Идентификатор кодека : A_AC3
Продолжительность : 1 ч. 33 м.
Вид битрейта : Постоянный
Битрейт : 448 Кбит/сек
Каналы : 6 каналов
Расположение каналов : Front: L C R, Side: L R, LFE
Частота : 48,0 КГц
Частота кадров : 31,250 кадров/сек (1536 SPF)
Битовая глубина : 16 бит
Метод сжатия : С потерями
Задержка видео : 70 мс.
Размер потока : 300 Мбайт (16%)
Язык : Russian
Default : Да
Forced : Нет
Аудио #2
Идентификатор : 3
Формат : AC-3
Формат/Информация : Audio Coding 3
Параметр Endianness формата : Big
Идентификатор кодека : A_AC3
Продолжительность : 1 ч. 33 м.
Вид битрейта : Постоянный
Битрейт : 224 Кбит/сек
Каналы : 1 канал
Расположение каналов : Front: C
Частота : 48,0 КГц
Частота кадров : 31,250 кадров/сек (1536 SPF)
Битовая глубина : 16 бит
Метод сжатия : С потерями
Задержка видео : 68 мс.
Размер потока : 150 Мбайт (8%)
Язык : Russian
Default : Нет
Forced : Нет
Меню
00:00:00.000 : en:Chapter 1
00:08:29.280 : en:Chapter 2
00:14:21.600 : en:Chapter 3
00:22:50.880 : en:Chapter 4
00:32:56.640 : en:Chapter 5
00:42:47.520 : en:Chapter 6
00:50:49.440 : en:Chapter 7
00:56:36.480 : en:Chapter 8
01:03:03.360 : en:Chapter 9
01:08:28.320 : en:Chapter 10
01:13:28.800 : en:Chapter 11
01:25:33.120 : en:Chapter 12
Не забывайте говорить Спасибо. Не уходите с раздачи!   
Торрент: Зарегистрирован [15 авг 2018, 06:34] Для скачивания .torrent
необходима регистрация
Или скачать с помощью
MediaGet
Статус:
Проверен
 
.torrent скачан: 232 раз
Хэш: 79a20077bd5db2200d786211b2fab932bda1934d
Размер: 1.86 ГБ (2 001 336 304 байт)
   Стать Автором раздачи
   
Цитата

Вернуться в Кино СССР (Rips)

Кто сейчас на конференции

Сейчас эту тему просматривают: нет зарегистрированных пользователей и гости: 1