Такси 5 / Taxi 5 (2018) BDRip 720p от ExKinoRay | iTunes

 Статистика раздачи 
Размер: 3.93 ГБ   |  Зарегистрирован: 12 авг 2018, 22:25   |   .torrent скачан: 20397 раз
Сидеров: 224  [ 0 байт/сек ]     Личеров: 8  [ 0 байт/сек ]  
  
Аватара пользователя
Главный редактор
Главный редактор
 
Раздал: 53.87 ТБ
Скачал: 2.62 ТБ
Ратио: 21.019
Сообщения: 189735
Стаж: 8 лет 1 месяц 22 дня
Откуда: Санкт-Петербург
СообщениеДобавлено: 12 авг 2018, 22:25


Информация о фильме
Название: Такси 5
Оригинальное название: Taxi 5
Год выхода: 2018
Жанр: Боевик, комедия, криминал, приключения
Режиссер: Франк Гастамбид
В ролях: Франк Гастамбид, Малик Бенталха, Бернар Фарси, Сальваторе Эспозито, Эдуард Монтут, Сабрина Уазани, Ануар Тубали, Сисси Дюпарк



О фильме: Экс-комиссар Жибер, ставший самым непутевым в истории города мэром Марселя, поручает переведенному из столицы новобранцу Сильвану Маро разобраться с неуловимой «бандой итальянцев» на Ferrari. Чтобы остановить их, Маро, суперкопу и суперводителю, приходится объединиться с племянником Даниэля. Парню досталось знаменитое белое такси дяди, но не его талант.

Страна: Франция
Студия: EuropaCorp, T5 Production, ARP Sélection
Продолжительность: 01:41:53
Перевод: Дублированный | iTunes

Качество: BDRip 720p
Видео: MPEG-4 AVC, 1280x536, 4500 Kbit/s, 24.000 fps
Звук:
Аудио #01: 48 kHz, AC3, 5.1, 384 Kbps | iTunes | RUS |
Аудио #02: 48 kHz, AC3, 5.1, 640 Kbps | Оригинал | FRE |



General
Unique ID : 220400892308801556759335865195465983080 (0xA5CFAAF6B11C5B93875DBE655226C468)
Complete name : D:Video111Taxi.5.2018.BDRip.720p.ExKinoRay.mkv
Format : Matroska
Format version : Version 4 / Version 2
File size : 3.93 GiB
Duration : 1 h 41 min
Overall bit rate : 5 517 kb/s
Movie name : Taxi 5 2018 from ExKinoRay
Encoded date : UTC 2018-08-12 19:21:46
Writing application : mkvmerge v7.3.0 ('Nouages') 64bit built on Oct 22 2014 18:53:34
Writing library : libebml v1.3.0 + libmatroska v1.4.1

Video
ID : 1
Format : AVC
Format/Info : Advanced Video Codec
Format profile : High@L4.1
Format settings : CABAC / 12 Ref Frames
Format settings, CABAC : Yes
Format settings, ReFrames : 12 frames
Codec ID : V_MPEG4/ISO/AVC
Duration : 1 h 41 min
Bit rate : 4 500 kb/s
Width : 1 280 pixels
Height : 536 pixels
Display aspect ratio : 2.40:1
Frame rate mode : Constant
Frame rate : 24.000 FPS
Color space : YUV
Chroma subsampling : 4:2:0
Bit depth : 8 bits
Scan type : Progressive
Bits/(Pixel*Frame) : 0.273
Stream size : 3.20 GiB (81%)
Writing library : x264 core 148 r2705 3f5ed56
Encoding settings : cabac=1 / ref=12 / deblock=1:-2:-2 / analyse=0x3:0x133 / me=umh / subme=11 / psy=1 / psy_rd=1.20:0.30 / mixed_ref=1 / me_range=48 / chroma_me=1 / trellis=2 / 8x8dct=1 / cqm=0 / deadzone=21,11 / fast_pskip=0 / chroma_qp_offset=-4 / threads=12 / lookahead_threads=2 / sliced_threads=0 / nr=0 / decimate=0 / interlaced=0 / bluray_compat=0 / constrained_intra=0 / bframes=8 / b_pyramid=2 / b_adapt=2 / b_bias=0 / direct=3 / weightb=1 / open_gop=0 / weightp=2 / keyint=240 / keyint_min=24 / scenecut=40 / intra_refresh=0 / rc_lookahead=50 / rc=2pass / mbtree=0 / bitrate=4500 / ratetol=1.0 / qcomp=0.60 / qpmin=0 / qpmax=51 / qpstep=4 / cplxblur=20.0 / qblur=0.5 / vbv_maxrate=50000 / vbv_bufsize=62500 / nal_hrd=none / filler=0 / ip_ratio=1.40 / pb_ratio=1.30 / aq=3:0.80
Language : English
Default : Yes
Forced : No

Audio #1
ID : 2
Format : AC-3
Format/Info : Audio Coding 3
Commercial name : Dolby Digital
Codec ID : A_AC3
Duration : 1 h 41 min
Bit rate mode : Constant
Bit rate : 384 kb/s
Channel(s) : 6 channels
Channel positions : Front: L C R, Side: L R, LFE
Sampling rate : 48.0 kHz
Frame rate : 31.250 FPS (1536 SPF)
Bit depth : 16 bits
Compression mode : Lossy
Stream size : 280 MiB (7%)
Title : iTunes
Language : Russian
Service kind : Complete Main
Default : Yes
Forced : Yes

Audio #2
ID : 3
Format : AC-3
Format/Info : Audio Coding 3
Commercial name : Dolby Digital
Codec ID : A_AC3
Duration : 1 h 41 min
Bit rate mode : Constant
Bit rate : 640 kb/s
Channel(s) : 6 channels
Channel positions : Front: L C R, Side: L R, LFE
Sampling rate : 48.0 kHz
Frame rate : 31.250 FPS (1536 SPF)
Bit depth : 16 bits
Compression mode : Lossy
Stream size : 466 MiB (12%)
Title : Original
Language : French
Service kind : Complete Main
Default : No
Forced : No

Menu
00:00:00.000 : en:00:00:00.000
00:09:24.167 : en:00:09:24.167
00:17:19.417 : en:00:17:19.417
00:27:35.000 : en:00:27:35.000
00:34:09.750 : en:00:34:09.750
00:41:46.833 : en:00:41:46.833
00:50:04.125 : en:00:50:04.125
00:58:29.625 : en:00:58:29.625
01:06:05.708 : en:01:06:05.708
01:14:53.167 : en:01:14:53.167
01:23:59.333 : en:01:23:59.333
01:32:28.750 : en:01:32:28.750


Релиз от:

Автор релиза:
Не забывайте говорить Спасибо. Не уходите с раздачи!   
Торрент: Зарегистрирован [12 авг 2018, 22:25] Для скачивания .torrent
необходима регистрация
Или скачать с помощью
MediaGet
Статус:
Проверен
 
.torrent скачан: 20397 раз
Хэш: 1800708bef8608ba1449fca59f8aabba0a9cdcd6
Размер: 3.93 ГБ (4 216 721 569 байт)
   Стать Автором раздачи
   
Цитата
  • Похожие торренты
    Ответы
    Просмотры
    Последнее сообщение

Вернуться в Зарубежное кино (HD Video)

Кто сейчас на конференции

Сейчас эту тему просматривают: нет зарегистрированных пользователей и гости: 1