Такси 5 / Taxi 5 (2018) BDRemux 1080p от ExKinoRay | iTunes

 Статистика раздачи 
Размер: 20.73 ГБ   |  Зарегистрирован: 12 авг 2018, 22:37   |   .torrent скачан: 6226 раз
Сидеров: 486  [ 0 байт/сек ]     Личеров: 20  [ 0 байт/сек ]  
  
Аватара пользователя
Главный редактор
Главный редактор
 
Раздал: 53.87 ТБ
Скачал: 2.62 ТБ
Ратио: 21.019
Сообщения: 187794
Стаж: 8 лет 1 месяц 19 дней
Откуда: Санкт-Петербург

Информация о фильме
Название: Такси 5
Оригинальное название: Taxi 5
Год выхода: 2018
Жанр: Боевик, комедия, криминал, приключения
Режиссер: Франк Гастамбид
В ролях: Франк Гастамбид, Малик Бенталха, Бернар Фарси, Сальваторе Эспозито, Эдуард Монтут, Сабрина Уазани, Ануар Тубали, Сисси Дюпарк



О фильме: Экс-комиссар Жибер, ставший самым непутевым в истории города мэром Марселя, поручает переведенному из столицы новобранцу Сильвану Маро разобраться с неуловимой «бандой итальянцев» на Ferrari. Чтобы остановить их, Маро, суперкопу и суперводителю, приходится объединиться с племянником Даниэля. Парню досталось знаменитое белое такси дяди, но не его талант.

Страна: Франция
Студия: EuropaCorp, T5 Production, ARP Sélection
Продолжительность: 01:41:53
Перевод: Дублированный | iTunes

Качество: BDRemux 1080p
Видео: MPEG-4 AVC, 1920x1080, 24.1 Mbit/s, 24.000 fps
Звук:
Аудио #01: 48 kHz, AC3, 5.1, 384 Kbps | iTunes | RUS |
Аудио #02: 48 kHz, TrueHD, 7.1, 3966 Kbps | Оригинал | FRE |
Аудио #03: 48 kHz, AC3, 5.1, 640 Kbps | Оригинал | FRE |



General
Unique ID : 240146461449292443927272309091787456262 (0xB4AA86AF6EA3C51AB2CADD084B15BF06)
Complete name : D:Video111Taxi.5.2018.BDREMUX.1080p.ExKinoRay.mkv
Format : Matroska
Format version : Version 4 / Version 2
File size : 20.7 GiB
Duration : 1 h 41 min
Overall bit rate mode : Variable
Overall bit rate : 29.1 Mb/s
Movie name : Taxi 5 2018 from ExKinoRay
Encoded date : UTC 2018-08-12 19:32:03
Writing application : mkvmerge v23.0.0 ('The Bride Said No') 64-bit
Writing library : libebml v1.3.6 + libmatroska v1.4.9

Video
ID : 1
Format : AVC
Format/Info : Advanced Video Codec
Format profile : High@L4.1
Format settings : CABAC / 4 Ref Frames
Format settings, CABAC : Yes
Format settings, ReFrames : 4 frames
Codec ID : V_MPEG4/ISO/AVC
Duration : 1 h 41 min
Bit rate mode : Variable
Bit rate : 24.1 Mb/s
Maximum bit rate : 28.0 Mb/s
Width : 1 920 pixels
Height : 1 080 pixels
Display aspect ratio : 16:9
Frame rate mode : Constant
Frame rate : 24.000 FPS
Standard : NTSC
Color space : YUV
Chroma subsampling : 4:2:0
Bit depth : 8 bits
Scan type : Progressive
Bits/(Pixel*Frame) : 0.484
Stream size : 17.1 GiB (83%)
Language : French
Default : Yes
Forced : No
Color range : Limited
Color primaries : BT.709
Transfer characteristics : BT.709
Matrix coefficients : BT.709

Audio #1
ID : 2
Format : AC-3
Format/Info : Audio Coding 3
Commercial name : Dolby Digital
Codec ID : A_AC3
Duration : 1 h 41 min
Bit rate mode : Constant
Bit rate : 384 kb/s
Channel(s) : 6 channels
Channel positions : Front: L C R, Side: L R, LFE
Sampling rate : 48.0 kHz
Frame rate : 31.250 FPS (1536 SPF)
Bit depth : 16 bits
Compression mode : Lossy
Stream size : 280 MiB (1%)
Title : iTunes
Language : Russian
Service kind : Complete Main
Default : Yes
Forced : Yes

Audio #2
ID : 3
Format : TrueHD
Format profile : TrueHD+Atmos / TrueHD
Codec ID : A_TRUEHD
Duration : 1 h 41 min
Bit rate mode : Variable
Bit rate : 3 966 kb/s
Maximum bit rate : 6 201 kb/s
Channel(s) : 8 channels
Channel positions : Front: L C R, Side: L R, Back: L R, LFE
Sampling rate : 48.0 kHz
Frame rate : 1 200.000 FPS (40 SPF)
Compression mode : Lossless
Stream size : 2.82 GiB (14%)
Title : Original
Language : French
Default : No
Forced : No
Number of dynamic objects : 11
Bed channel count : 1 channel
Bed channel configuration : LFE

Audio #3
ID : 4
Format : AC-3
Format/Info : Audio Coding 3
Commercial name : Dolby Digital
Codec ID : A_AC3
Duration : 1 h 41 min
Bit rate mode : Constant
Bit rate : 640 kb/s
Channel(s) : 6 channels
Channel positions : Front: L C R, Side: L R, LFE
Sampling rate : 48.0 kHz
Frame rate : 31.250 FPS (1536 SPF)
Bit depth : 16 bits
Compression mode : Lossy
Stream size : 466 MiB (2%)
Language : French
Service kind : Complete Main
Default : No
Forced : No

Menu
00:00:00.000 : en:00:00:00.000
00:09:24.167 : en:00:09:24.167
00:17:19.417 : en:00:17:19.417
00:27:35.000 : en:00:27:35.000
00:34:09.750 : en:00:34:09.750
00:41:46.833 : en:00:41:46.833
00:50:04.125 : en:00:50:04.125
00:58:29.625 : en:00:58:29.625
01:06:05.708 : en:01:06:05.708
01:14:53.167 : en:01:14:53.167
01:23:59.333 : en:01:23:59.333
01:32:28.750 : en:01:32:28.750


Релиз от:

Автор релиза:
Не забывайте говорить Спасибо. Не уходите с раздачи!   
Торрент: Зарегистрирован [12 авг 2018, 22:37] Для скачивания .torrent
необходима регистрация
Или скачать с помощью
MediaGet
Статус:
Проверен
 
.torrent скачан: 6226 раз
Хэш: 782385084bfe810e79434192e10471b5e4c8a087
Размер: 20.73 ГБ (22 261 203 295 байт)
   Стать Автором раздачи
   
Цитата
  • Похожие торренты
    Ответы
    Просмотры
    Последнее сообщение

Вернуться в Зарубежное кино (HD Video)

Кто сейчас на конференции

Сейчас эту тему просматривают: нет зарегистрированных пользователей и гости: 1