Баджирао и Мастани / Bajirao Mastani (2015) BDRip [H.264/1080p] [MVO]

 Статистика раздачи 
Размер: 13.73 ГБ   |  Зарегистрирован: 05 авг 2018, 16:28   |   .torrent скачан: 1 раз
Сидеров: 6  [ 0 байт/сек ]     Личеров: 1  [ 0 байт/сек ]  
  
Аватара пользователя
 
Раздал: 3.63 ТБ
Скачал: 101.21 ГБ
Ратио: 36.755
Сообщения: 200954
Стаж: 1 год 8 месяцев 25 дней

Баджирао и Мастани / Bajirao Mastani (2015) BDRip [H.264/1080p] [MVO]

Производство: Индия
Жанр: драма, мелодрама, история

Режиссер: Санджай Лила Бхансали
Актеры: Ранвир Сингх, Дипика Падукон, Приянка Чопра, Адитья Панчоли, Милинд Соман, Раза Мурад, Танви Азми

Описание:
История любви индийского военачальника Баджи Рао I и мусульманской принцессы Мастани.

https://www.imdb.com/title/tt3735246/?ref_=plg_rt_1

Релиз от: NNMClub

Продолжительность: 02:38:01
Качество видео: BDRip (MTeam)
Перевод: Многоголосый закадровый
Автор перевода: Озвучка: Денис Строев, Давид Петросян и Маргарита Сахно. Перевод и редакция: Honey&Haseena

Видео: AVC/H.264, 1920x808, ~12.0 Mbps, 23.976 fps
Аудио: AC3, 6 ch, 448 Kbps
x264 [info]: frame I:2171 Avg QP:13.82 size:232319
x264 [info]: frame P:57729 Avg QP:15.75 size:104882
x264 [info]: frame B:167662 Avg QP:17.82 size: 45649
x264 [info]: consecutive B-frames: 3.4% 3.9% 19.9% 21.6% 16.2% 29.0% 6.0%
Код: Выделить всё
General
Complete name               : \Баджирао и Мастани_Bajirao Mastani (2015) BDRip.1080p.NNMClub.mkv
Format                      : Matroska
Format version              : Version 4 / Version 2
File size                   : 13.7 GiB
Duration                    : 2 h 38 min
Overall bit rate            : 12.4 Mb/s
Movie name                  : Баджирао и Мастани_Bajirao Mastani (2015) BDRip.1080p.NNMClub
Encoded date                : UTC 2018-08-05 12:47:15
Writing application         : mkvmerge v18.0.0 ('Apricity') 64-bit
Writing library             : libebml v1.3.5 + libmatroska v1.4.8

Video
ID                          : 1
Format                      : AVC
Format/Info                 : Advanced Video Codec
Format profile              : [url=http://nnmclub.to/mailto:High@L4.1]High@L4.1[/url]
Format settings             : CABAC / 5 Ref Frames
Format settings, CABAC      : Yes
Format settings, ReFrames   : 5 frames
Codec ID                    : V_MPEG4/ISO/AVC
Duration                    : 2 h 38 min
Bit rate                    : 12.0 Mb/s
Width                       : 1 920 pixels
Height                      : 808 pixels
Display aspect ratio        : 2.40:1
Frame rate mode             : Constant
Frame rate                  : 24.000 FPS
Color space                 : YUV
Chroma subsampling          : 4:2:0
Bit depth                   : 8 bits
Scan type                   : Progressive
Bits/(Pixel*Frame)          : 0.322
Stream size                 : 13.2 GiB (96%)
Title                       : Баджирао и Мастани_Bajirao Mastani (2015) BDRip.1080p.NNMClub
Writing library             : x264 core 155 r2901 7d0ff22
Encoding settings           : cabac=1 / ref=5 / deblock=1:-3:-3 / analyse=0x3:0x133 / me=umh / subme=10 / psy=1 / psy_rd=1.00:0.00 / mixed_ref=1 / me_range=48 / chroma_me=1 / trellis=2 / 8x8dct=1 / cqm=0 / deadzone=21,11 / fast_pskip=0 / chroma_qp_offset=-2 / threads=12 / lookahead_threads=1 / sliced_threads=0 / nr=0 / decimate=1 / interlaced=0 / bluray_compat=0 / constrained_intra=0 / bframes=6 / b_pyramid=2 / b_adapt=2 / b_bias=0 / direct=3 / weightb=1 / open_gop=0 / weightp=2 / keyint=230 / keyint_min=22 / scenecut=40 / intra_refresh=0 / rc_lookahead=60 / rc=2pass / mbtree=1 / bitrate=12000 / ratetol=1.0 / qcomp=0.60 / qpmin=0 / qpmax=69 / qpstep=4 / cplxblur=20.0 / qblur=0.5 / vbv_maxrate=50000 / vbv_bufsize=50000 / nal_hrd=none / filler=0 / ip_ratio=1.40 / aq=1:1.00
Language                    : Hindi
Default                     : Yes
Forced                      : No

Audio
ID                          : 2
Format                      : AC-3
Format/Info                 : Audio Coding 3
Codec ID                    : A_AC3
Duration                    : 2 h 38 min
Bit rate mode               : Constant
Bit rate                    : 448 kb/s
Channel(s)                  : 6 channels
Channel positions           : Front: L C R, Side: L R, LFE
Sampling rate               : 48.0 kHz
Frame rate                  : 31.250 FPS (1536 SPF)
Bit depth                   : 16 bits
Compression mode            : Lossy
Stream size                 : 506 MiB (4%)
Title                       : Многоголосый закадровый
Language                    : Russian
Service kind                : Complete Main
Default                     : Yes
Forced                      : No

Text
ID                          : 3
Format                      : UTF-8
Codec ID                    : S_TEXT/UTF8
Codec ID/Info               : UTF-8 Plain Text
Duration                    : 2 h 9 min
Bit rate                    : 13 b/s
Count of elements           : 187
Stream size                 : 13.0 KiB (0%)
Title                       : Форс. (на песни)
Language                    : Russian
Default                     : Yes
Forced                      : No

Menu
00:00:00.000                : en:00:00:00.000
00:03:13.875                : en:00:03:13.875
00:07:37.583                : en:00:07:37.583
00:14:14.458                : en:00:14:14.458
00:18:35.792                : en:00:18:35.792
00:24:07.417                : en:00:24:07.417
00:28:29.708                : en:00:28:29.708
00:32:10.042                : en:00:32:10.042
00:37:06.083                : en:00:37:06.083
00:39:37.000                : en:00:39:37.000
00:44:07.125                : en:00:44:07.125
00:50:31.000                : en:00:50:31.000
01:00:38.875                : en:01:00:38.875
01:08:54.000                : en:01:08:54.000
01:11:43.833                : en:01:11:43.833
01:25:48.750                : en:01:25:48.750
01:28:08.625                : en:01:28:08.625
01:32:19.000                : en:01:32:19.000
01:41:54.375                : en:01:41:54.375
01:46:33.500                : en:01:46:33.500
01:49:13.917                : en:01:49:13.917
01:55:12.208                : en:01:55:12.208
01:58:39.000                : en:01:58:39.000
02:08:52.458                : en:02:08:52.458
02:11:58.125                : en:02:11:58.125
02:13:45.000                : en:02:13:45.000
02:21:38.792                : en:02:21:38.792
02:33:23.750                : en:02:33:23.750

Скриншоты:



Время раздачи: 24/7 (до появления первых 3-5 скачавших)
Не забывайте говорить Спасибо. Не уходите с раздачи!   
Торрент: Зарегистрирован [05 авг 2018, 16:28] Для скачивания .torrent
необходима регистрация
Или скачать с помощью
MediaGet
Статус:
Проверен
 
.torrent скачан: 1 раз
Хэш: de770c33c6738b7ae58817793bf56bc173944e06
Размер: 13.73 ГБ (14 746 075 832 байт)
   Стать Автором раздачи
   
Цитата

Вернуться в Индийское кино

Кто сейчас на конференции

Сейчас эту тему просматривают: нет зарегистрированных пользователей и гости: 1