Гедонист / Bogan (2017) WEBHDRip

 Статистика раздачи 
Размер: 1.86 ГБ   |  Зарегистрирован: 25 июл 2018, 17:02   |   .torrent скачан: 0 раз
Сидеров: 5  [ 0 байт/сек ]     Личеров: 0  [ 0 байт/сек ]  
  
Аватара пользователя
 
Раздал: 3.63 ТБ
Скачал: 101.21 ГБ
Ратио: 36.755
Сообщения: 200954
Стаж: 1 год 8 месяцев 25 дней
СообщениеДобавлено: 25 июл 2018, 17:02


Гедонист / Bogan (2017) WEBHDRip

Производство: Индия
Жанр: Фантастика, Фэнтези, Боевик

Режиссер: Лакшман
Продюсер: Dr.K. Ganesh, Прабхудева, K. Ashwin Kumar
Актеры: Джаям Рави, Арвинд Свами, Хансика Мотвани, Нассер, Понваннан, Нарен, Нагендра Прасад, Варун, Акшара Говда

Описание:
Полицейский Викрам много лет пытается поймать опасного преступника Адитью, не подозревая о его сверхъестественной способности меняться душами с любым человеком. Когда преступник наконец оказывается загнан в угол, он попросту захватывает тело честного копа Викрама, в вместе с ним и его работу, семью, будущее. В это время Викрам, очнувшись за решеткой в теле своего главного врага, вынужден устроить побег и отправиться на поиски правосудия.

https://www.imdb.com/title/tt6340112/?ref_=plg_rt_1
Мировая премьера : 2 февраля 2017

Релиз от: BwTorrents

Продолжительность: 02:25:01
Качество видео: WEBHDRip
Перевод: Любительский (закадровый, двухголосый)
Субтитры: отсутствуют

Видео: Xvid, 720x306, ~1598 Kbps
Аудио: AC3, 6 ch, 224 Kbps
Код: Выделить всё
Общее
Полное имя                               : J:\Gedonist.2017.WEBHDRip.avi
Формат                                   : AVI
Формат/Информация                        : Audio Video Interleave
Профиль формата                          : OpenDML
Размер файла                             : 1,86 Гбайт
Продолжительность                        : 2 ч. 25 м.
Общий поток                              : 1837 Кбит/сек
Название фильма                          : [url=http://www.TamilRockers.gs]www.TamilRockers.gs[/url]
Программа кодирования                    : Lavf57.71.100

Видео
Идентификатор                            : 0
Формат                                   : MPEG-4 Visual
Профиль формата                          : Advanced Simple@L5
Параметр BVOP формата                    : 1
Параметр QPel формата                    : Нет
Параметр GMC формата                     : Без точки перехода
Параметр матрицы формата                 : Default (H.263)
Идентификатор кодека                     : XVID
Идентификатор кодека/Подсказка           : XviD
Продолжительность                        : 2 ч. 24 м.
Битрейт                                  : 1598 Кбит/сек
Ширина                                   : 720 пикселей
Высота                                   : 306 пикселей
Соотношение сторон                       : 2,35:1
Частота кадров                           : 60,000 кадров/сек
Частота кадров в оригинале               : 30,000 кадров/сек
Цветовое пространство                    : YUV
Субдискретизация насыщенности            : 4:2:0
Битовая глубина                          : 8 бит
Тип развёртки                            : Прогрессивная
Метод сжатия                             : С потерями
Бит/(Пиксели*Кадры)                      : 0.121
Размер потока                            : 1,62 Гбайт (87%)
Заголовок                                : [url=http://www.TamilRockers.gs]www.TamilRockers.gs[/url]
Библиотека кодирования                   : XviD 67

Аудио
Идентификатор                            : 1
Формат                                   : AC-3
Формат/Информация                        : Audio Coding 3
Расширение режима                        : CM (complete main)
Параметр Endianness формата              : Big
Идентификатор кодека                     : 2000
Продолжительность                        : 2 ч. 25 м.
Вид битрейта                             : Постоянный
Битрейт                                  : 224 Кбит/сек
Каналы                                   : 6 каналов
Расположение каналов                     : Front: L C R, Side: L R, LFE
Частота                                  : 48,0 КГц
Частота кадров                           : 31,250 кадров/сек (1536 spf)
Битовая глубина                          : 16 бит
Метод сжатия                             : С потерями
Размер потока                            : 232 Мбайт (12%)
Выравнивание                             : Соединение по промежуткам
Продолжительность промежутка             : 32  мс. (1,92 видеокадра)

Скриншоты:




Время раздачи: Пн-Пт с 18:00 до 22:00, Вс с 09:00 до 23:00 (до появления первых 3-5 скачавших)
Не забывайте говорить Спасибо. Не уходите с раздачи!   
Торрент: Зарегистрирован [25 июл 2018, 17:02] Для скачивания .torrent
необходима регистрация
Или скачать с помощью
MediaGet
Статус:
Проверен
 
.torrent скачан: 0 раз
Хэш: 07b720ad1c3b470083fe78ccb016cb6446f6d908
Размер: 1.86 ГБ (1 997 542 348 байт)
   Стать Автором раздачи
   
Цитата
  • Похожие торренты
    Ответы
    Просмотры
    Последнее сообщение

Вернуться в Индийское кино

Кто сейчас на конференции

Сейчас эту тему просматривают: нет зарегистрированных пользователей и гости: 1