Поединок / Kaththi Sandai (2016) WEBHDRip

 Статистика раздачи 
Размер: 1.68 ГБ   |  Зарегистрирован: 10 июн 2018, 08:07   |   .torrent скачан: 1 раз
Сидеров: 0  [ 0 байт/сек ]     Личеров: 2  [ 0 байт/сек ]  
  
Аватара пользователя
 
Раздал: 3.13 ТБ
Скачал: 38.27 ГБ
Ратио: 83.739
Сообщения: 189102
Стаж: 1 год 6 месяцев 27 дней
СообщениеДобавлено: 10 июн 2018, 08:07


Поединок / Kaththi Sandai (2016) WEBHDRip

Производство: Индия
Жанр: Боевик

Режиссер: Сурадж
Продюсер: S. Nanthagopal
Актеры: Аарти, Тарун Арора, Джагапати Бабу, Таманна Бхатия, Мадан Боб, Чинни Джайянт, В. Джаяпракаш, Nirosha, Сури, Soundararaja

Описание:
История фермера, который ради благополучия родной деревни становится Робин Гудом...

http://www.imdb.com/title/tt6385842/?ref_=plg_rt_1
Мировая премьера: 23 декабря 2016

Релиз от: BwTorrents

Продолжительность: 02:20:49
Качество видео: WEBHDRip
Перевод: Любительский (закадровый, одноголосый) Бахурани
Автор перевода субтитров и сведение аудио:Veronika Vishi,larisa_k
Субтитры: отсутствуют

Видео: Xvid, 720x306, ~1500 Kbps
Аудио: AC3, 2 ch, 192 Kbps
Код: Выделить всё
Общее
Полное имя                               : J:\Poedinok.2016.WEBHD..avi
Формат                                   : AVI
Формат/Информация                        : Audio Video Interleave
Профиль формата                          : OpenDML
Размер файла                             : 1,68 Гбайт
Продолжительность                        : 2 ч. 20 м.
Общий поток                              : 1704 Кбит/сек
Название фильма                          : [url=http://www.TamilRockers.gr]www.TamilRockers.gr[/url]
Программа кодирования                    : Lavf57.71.100

Видео
Идентификатор                            : 0
Формат                                   : MPEG-4 Visual
Профиль формата                          : Advanced Simple@L5
Параметр BVOP формата                    : 1
Параметр QPel формата                    : Нет
Параметр GMC формата                     : Без точки перехода
Параметр матрицы формата                 : Default (H.263)
Идентификатор кодека                     : XVID
Идентификатор кодека/Подсказка           : XviD
Продолжительность                        : 2 ч. 20 м.
Битрейт                                  : 1500 Кбит/сек
Ширина                                   : 720 пикселей
Высота                                   : 306 пикселей
Соотношение сторон                       : 2,35:1
Частота кадров                           : 30,000 кадров/сек
Цветовое пространство                    : YUV
Субдискретизация насыщенности            : 4:2:0
Битовая глубина                          : 8 бит
Тип развёртки                            : Прогрессивная
Метод сжатия                             : С потерями
Бит/(Пиксели*Кадры)                      : 0.227
Размер потока                            : 1,48 Гбайт (88%)
Заголовок                                : ПОЕДР?РќРћРљ / Kaththi Sandai (2016)
Библиотека кодирования                   : XviD 67

Аудио
Идентификатор                            : 1
Формат                                   : AC-3
Формат/Информация                        : Audio Coding 3
Расширение режима                        : CM (complete main)
Параметр Endianness формата              : Big
Идентификатор кодека                     : 2000
Продолжительность                        : 2 ч. 20 м.
Вид битрейта                             : Постоянный
Битрейт                                  : 192 Кбит/сек
Каналы                                   : 2 канала
Расположение каналов                     : Front: L R
Частота                                  : 48,0 КГц
Частота кадров                           : 31,250 кадров/сек (1536 spf)
Битовая глубина                          : 16 бит
Метод сжатия                             : С потерями
Размер потока                            : 193 Мбайт (11%)
Выравнивание                             : Соединение по промежуткам
Продолжительность промежутка             : 32  мс. (0,96 видеокадр)
Заголовок                                : ПОЕДР?РќРћРљ / Kaththi Sandai (2016)

Скриншоты:




Время раздачи: Пн-Пт с 18:00 до 22:00,Вс с 09:00 до 22:30 (до появления первых 3-5 скачавших)
Не забывайте говорить Спасибо. Не уходите с раздачи!   
Торрент: Зарегистрирован [10 июн 2018, 08:07] Для скачивания .torrent
необходима регистрация
Или скачать с помощью
MediaGet
Статус:
Проверен
 
.torrent скачан: 1 раз
Размер: 1.68 ГБ (1 800 351 336 байт)
   Стать Автором раздачи
   
Цитата

Вернуться в Индийское кино

Кто сейчас на конференции

Сейчас эту тему просматривают: нет зарегистрированных пользователей и гости: 1