Фея / Pari (2018) HDRip [MVO]

 Статистика раздачи 
Размер: 1.6 ГБ   |  Зарегистрирован: 13 май 2018, 07:33   |   .torrent скачан: 354 раз
Сидеров: 1  [ 0 байт/сек ]     Личеров: 1  [ 0 байт/сек ]  
  
Аватара пользователя
 
Раздал: 3.11 ТБ
Скачал: 28.52 ГБ
Ратио: 111.585
Сообщения: 188196
Стаж: 1 год 6 месяцев 24 дня
СообщениеДобавлено: 13 май 2018, 07:33


Фея / Pari (2018) HDRip

Производство: Индия
Жанр: Мелодрама, Ужасы, Триллер

Режиссер: Прозит Рой
Продюсер: Карнеш Шарма, Прерна Арора, Рохит Джаясвал
Актеры: Анушка Шарма, Парамбрата Чаттерджи, Раджат Капур, Ритабхари Чакраборти, Дибюенду Бхаттачария, Митху Чакраборти, Аншуман Джха, Сантилал Мукхерджи, Манси Мултани

Описание:
После знакомства с потенциальной невестой Арнаб с родителями возвращается в Калькутту на машине. Идет сильный дождь, и они насмерть сбивают пожилую женщину. Попытки выяснить её личность и найти родственников приводят Арнаба в лесную хижину, где обнаруживается девушка Руксана, сидящая на цепи. Полиция освобождает несчастную, а после похорон матери в хижину за девушкой приходит группа вооружённых мужчин с явно недобрыми намерениями. Испуганная Руксана бежит к Аранабу, а тот, чувствуя вину за происходящее, разрешает ей пожить у себя.

http://www.imdb.com/title/tt7329858/?ref_=plg_rt_1
Возраст: 16+ (зрителям, достигшим 16 лет)
Премьера РФ: 19 апреля 2018, «Indian Films»

Релиз от: FanStudio

Продолжительность: 02:14:08
Качество видео: HDRip
Перевод: Любительский многоголосый
Автор перевода: Anna
Субтитры: отсутствуют

Видео: Xvid, 720x304, ~1499 Kbps
Аудио: AC3, 2 ch, 192 Kbps
Код: Выделить всё
Общее
Полное имя                               : J:\Pari.2018.HDRip.avi
Формат                                   : AVI
Формат/Информация                        : Audio Video Interleave
Профиль формата                          : OpenDML
Размер файла                             : 1,60 Гбайт
Продолжительность                        : 2 ч. 14 м.
Общий поток                              : 1702 Кбит/сек
Программа кодирования                    : Lavf57.71.100

Видео
Идентификатор                            : 0
Формат                                   : MPEG-4 Visual
Профиль формата                          : Advanced Simple@L5
Параметр BVOP формата                    : 1
Параметр QPel формата                    : Нет
Параметр GMC формата                     : Без точки перехода
Параметр матрицы формата                 : Default (H.263)
Идентификатор кодека                     : XVID
Идентификатор кодека/Подсказка           : XviD
Продолжительность                        : 2 ч. 14 м.
Битрейт                                  : 1499 Кбит/сек
Ширина                                   : 720 пикселей
Высота                                   : 304 пикселя
Соотношение сторон                       : 2,35:1
Частота кадров                           : 25,000 кадров/сек
Цветовое пространство                    : YUV
Субдискретизация насыщенности            : 4:2:0
Битовая глубина                          : 8 бит
Тип развёртки                            : Прогрессивная
Метод сжатия                             : С потерями
Бит/(Пиксели*Кадры)                      : 0.274
Размер потока                            : 1,40 Гбайт (88%)
Библиотека кодирования                   : XviD 67

Аудио
Идентификатор                            : 1
Формат                                   : AC-3
Формат/Информация                        : Audio Coding 3
Расширение режима                        : CM (complete main)
Параметр Endianness формата              : Big
Идентификатор кодека                     : 2000
Продолжительность                        : 2 ч. 14 м.
Вид битрейта                             : Постоянный
Битрейт                                  : 192 Кбит/сек
Каналы                                   : 2 канала
Расположение каналов                     : Front: L R
Частота                                  : 48,0 КГц
Частота кадров                           : 31,250 кадров/сек (1536 spf)
Битовая глубина                          : 16 бит
Метод сжатия                             : С потерями
Размер потока                            : 184 Мбайт (11%)
Выравнивание                             : Соединение по промежуткам
Продолжительность промежутка             : 32  мс. (0,80 видеокадр)

Скриншоты:




Время раздачи: Пн-Пт с 18:00 до 22:00, Вс с 09:00 до 22:30 (до появления первых 3-5 скачавших)
Не забывайте говорить Спасибо. Не уходите с раздачи!   
Торрент: Зарегистрирован [13 май 2018, 07:33] Для скачивания .torrent
необходима регистрация
Или скачать с помощью
MediaGet
Статус:
Проверен
 
.torrent скачан: 354 раз
Размер: 1.6 ГБ (1 712 704 954 байт)
   Стать Автором раздачи
   
Цитата

Вернуться в Индийское кино

Кто сейчас на конференции

Сейчас эту тему просматривают: нет зарегистрированных пользователей и гости: 1