Икота / Hichki (2018) BDRip

 Статистика раздачи 
Размер: 2.14 ГБ   |  Зарегистрирован: 22 май 2018, 22:11   |   .torrent скачан: 0 раз
Сидеров: 0  [ 0 байт/сек ]     Личеров: 1  [ 0 байт/сек ]  
  
Аватара пользователя
 
Раздал: 2.66 ТБ
Скачал: 10.56 ГБ
Ратио: 258.364
Сообщения: 177023
Стаж: 1 год 4 месяца 28 дней
СообщениеДобавлено: 22 май 2018, 22:11


Икота / Hichki (2018) BDRip

Производство: Индия
Жанр: Драма, Комедия

Режиссер: Сиддхартх Малхотра
Продюсер: Адитья Чопра, Маниш Шарма, Бхарат Равайл
Актеры: Рани Мукхерджи, Нирадж Каби, Суприя Пилгаонкар, Рохит Сараф, Ivan Rodrigues, Азиф Басра, Шивкумар Субраманиам ,Хэрш Майар, Kunal Shiinde, Suprio Bose

Описание:
С шести лет Нэйна Матхур страдает синдромом Туретта. Её симптомы — частые моторные и вокальные тики, которые невозможно подавить. Тем не менее Нэйна бросает вызов всем барьерам и неприятностям, и даже восемнадцать отказов подряд не останавливают её на пути к мечте стать учителем...

http://www.imdb.com/title/tt6588966/?ref_=plg_rt_1
Мировая премьера: 23 марта 2018

Релиз от: Honey&Haseena

Продолжительность: 01:57:20
Качество видео: BDRip
Перевод: Профессиональный многоголосый
Автор перевода:Honey&Haseena
Озвучка:Маргарита Корш, Маргарита Сахно, Станислав Черсков, Кирилл Патрино и Константин Федосеев
Субтитры: русские,неотключаемые
Реклама: Рекламы нет, но есть на одну минуту в кадре строка с ссылкой на группу

Видео: Xvid, 720x304, ~2217 Kbps
Аудио: AC3, 6 ch, 384 Kbps
Код: Выделить всё
Общее
Полное имя                               : J:\Uchitel.na.zamenu.2018.BDRip..avi
Формат                                   : AVI
Формат/Информация                        : Audio Video Interleave
Профиль формата                          : OpenDML
Размер файла                             : 2,14 Гбайт
Продолжительность                        : 1 ч. 57 м.
Общий поток                              : 2613 Кбит/сек
Программа кодирования                    : VirtualDubMod 1.5.10.2 (build 2540/release)
Библиотека кодирования                   : VirtualDubMod build 2540/release

Видео
Идентификатор                            : 0
Формат                                   : MPEG-4 Visual
Профиль формата                          : Advanced [email protected]
Параметр BVOP формата                    : 1
Параметр QPel формата                    : Нет
Параметр GMC формата                     : Без точки перехода
Параметр матрицы формата                 : Default (MPEG)
Идентификатор кодека                     : XVID
Идентификатор кодека/Подсказка           : XviD
Продолжительность                        : 1 ч. 57 м.
Битрейт                                  : 2217 Кбит/сек
Ширина                                   : 720 пикселей
Высота                                   : 304 пикселя
Соотношение сторон                       : 2,35:1
Частота кадров                           : 24,000 кадра/сек
Цветовое пространство                    : YUV
Субдискретизация насыщенности            : 4:2:0
Битовая глубина                          : 8 бит
Тип развёртки                            : Прогрессивная
Метод сжатия                             : С потерями
Бит/(Пиксели*Кадры)                      : 0.422
Размер потока                            : 1,82 Гбайт (85%)
Библиотека кодирования                   : XviD 73

Аудио
Идентификатор                            : 1
Формат                                   : AC-3
Формат/Информация                        : Audio Coding 3
Расширение режима                        : CM (complete main)
Параметр Endianness формата              : Big
Идентификатор кодека                     : 2000
Продолжительность                        : 1 ч. 57 м.
Вид битрейта                             : Постоянный
Битрейт                                  : 384 Кбит/сек
Каналы                                   : 6 каналов
Расположение каналов                     : Front: L C R, Side: L R, LFE
Частота                                  : 48,0 КГц
Частота кадров                           : 31,250 кадров/сек (1536 spf)
Метод сжатия                             : С потерями
Размер потока                            : 322 Мбайт (15%)
Выравнивание                             : Разделение по промежуткам
Продолжительность промежутка             : 42  мс. (1,00 видеокадр)
Время предзагрузки промежутка            : 500  мс.

Скриншоты:




Время раздачи: Пн-Пт с 18:00 до 22:00, Вс с 09:00 до 22:30 (до появления первых 3-5 скачавших)
   
Торрент: Зарегистрирован [22 май 2018, 22:11] Индийское кино Скачать торрент Магнет ссылка
Скачать торрент
[ Размер 11.56 КБ / Просмотров 5 ]
Статус:
Проверен
 
.torrent скачан: 0 раз
Размер: 2.14 ГБ (2 299 373 568 байт)
   Стать Автором раздачи
 
 
Цитата

Вернуться в Индийское кино

Кто сейчас на конференции

Сейчас эту тему просматривают: нет зарегистрированных пользователей и гости: 1