Кислород / Oxygen (2017) WEBRip

 Статистика раздачи 
Размер: 1.7 ГБ   |  Зарегистрирован: 07 май 2018, 20:13   |   .torrent скачан: 3 раз
Сидеров: 0  [ 0 байт/сек ]     Личеров: 1  [ 0 байт/сек ]  
  
Аватара пользователя
 
Раздал: 3.11 ТБ
Скачал: 28.52 ГБ
Ратио: 111.495
Сообщения: 188196
Стаж: 1 год 6 месяцев 24 дня
СообщениеДобавлено: 07 май 2018, 20:13


Кислород / Oxygen (2017) WEBRip

Производство: Индия
Жанр: Боевик, Драма

Режиссер: Джиоти Кришна
Продюсер: А.М. Ратхнам
Актеры: Тоттемпуди Гопичанд, Раши Кханна, Ану Эммануэль, Джагапати Бабу, Брахмаджи

Описание:
Главный герой этого увлекательного боевика — Кришна Прасад. Живя длительное время в Америке, он возвращается в Индию, чтобы жениться на девушке из большой семьи, по имени Шрути. До определенного времени все шло прекрасно. Но неожиданно, случается трагедия. Кто-то неизвестный, жестоко убивает одного из родственников его невесты…. И буквально сразу после этого, ещё несколько членов семьи Шрути, погибает от рук неизвестного врага. Кришне предстоит выяснить, что происходит вокруг семьи Шрути и почему, кто-то внезапно, начал убивать членов её семьи…

http://www.imdb.com/title/tt6735678/?ref_=plg_rt_1
Мировая премьера: 29 ноября 2017

Продолжительность: 02:32:42
Качество видео: WEBRip
Перевод: любительский двухголосый
Субтитры: отсутствуют

Видео: Xvid, 720x306, ~1388 Kbps
Аудио: AAC, 2 ch, 192 Kbps
Код: Выделить всё
Общее
Полное имя                               : E:\Индия\гопичанд\Oxygen.2017.WebRip.avi
Формат                                   : AVI
Формат/Информация                        : Audio Video Interleave
Профиль формата                          : OpenDML
Размер файла                             : 1,70 Гбайт
Продолжительность                        : 2 ч. 32 м.
Режим общего битрейта                    : Переменный
Общий поток                              : 1594 Кбит/сек
Программа кодирования                    : Lavf57.71.100

Видео
Идентификатор                            : 0
Формат                                   : MPEG-4 Visual
Профиль формата                          : Advanced Simple@L5
Параметр BVOP формата                    : 1
Параметр QPel формата                    : Нет
Параметр GMC формата                     : Без точки перехода
Параметр матрицы формата                 : Default (H.263)
Идентификатор кодека                     : XVID
Идентификатор кодека/Подсказка           : XviD
Продолжительность                        : 2 ч. 32 м.
Битрейт                                  : 1388 Кбит/сек
Ширина                                   : 720 пикселей
Высота                                   : 306 пикселей
Соотношение сторон                       : 2,35:1
Частота кадров                           : 25,000 кадров/сек
Цветовое пространство                    : YUV
Субдискретизация насыщенности            : 4:2:0
Битовая глубина                          : 8 бит
Тип развёртки                            : Прогрессивная
Метод сжатия                             : С потерями
Бит/(Пиксели*Кадры)                      : 0.252
Размер потока                            : 1,48 Гбайт (87%)
Библиотека кодирования                   : XviD 67

Аудио
Идентификатор                            : 1
Формат                                   : AAC
Формат/Информация                        : Advanced Audio Codec
Версия формата                           : Version 4
Профиль формата                          : LC
Режим смешивания                         : ADTS
Идентификатор кодека                     : FF
Продолжительность                        : 2 ч. 32 м.
Вид битрейта                             : Переменный
Битрейт                                  : 192 Кбит/сек
Каналы                                   : 2 канала
Расположение каналов                     : Front: L R
Частота                                  : 44,1 КГц
Частота кадров                           : 43,066 кадра/сек (1024 spf)
Метод сжатия                             : С потерями
Размер потока                            : 210 Мбайт (12%)
Выравнивание                             : Соединение по промежуткам
Продолжительность промежутка             : 23  мс. (0,58 видеокадр)

Скриншоты:




Время раздачи: Пн-Пт с 18:00 до 22:00, Вс с 09:00 до 22:30 (до появления первых 3-5 скачавших)
Не забывайте говорить Спасибо. Не уходите с раздачи!   
Торрент: Зарегистрирован [07 май 2018, 20:13] Для скачивания .torrent
необходима регистрация
Или скачать с помощью
MediaGet
Статус:
Проверен
 
.torrent скачан: 3 раз
Размер: 1.7 ГБ (1 826 172 722 байт)
   Стать Автором раздачи
   
Цитата
  • Похожие торренты
    Ответы
    Просмотры
    Последнее сообщение

Вернуться в Индийское кино

Кто сейчас на конференции

Сейчас эту тему просматривают: нет зарегистрированных пользователей и гости: 1