Гангстер: История любви / Гангстер / Gangster / Gangster: A Love Story (2006) BDRemux [H.264/1080p]

 Статистика раздачи 
Размер: 26.19 ГБ   |  Зарегистрирован: 08 апр 2018, 10:40   |   .torrent скачан: 0 раз
Сидеров: 0  [ 0 байт/сек ]     Личеров: 1  [ 0 байт/сек ]  
  
Аватара пользователя
 
Раздал: 3.56 ТБ
Скачал: 100.18 ГБ
Ратио: 36.405
Сообщения: 200084
Стаж: 1 год 8 месяцев 20 дней

Гангстер: История любви / Gangster (2006) BDRemux [H.264/1080p]

Производство: Индия, Bhatt Productions
Жанр: Триллер, Драма, Мелодрама, Криминал

Режиссер: Анураг Басу
Актеры: Кангана Ранаут, Шиней Ахуджа, Эмран Хашми, Гульшан Гровер, Вики Ахуджа, Хитаншу Лодхиа, Сачин Карекар, Джитпал

Описание:
Они любили друг друга, несмотря на расстояния. Они любили друг друга, несмотря на разницу характеров. Они любили друг друга, несмотря на то, что не виделись месяцами. Они любили друг друга, несмотря на то, что он был преступником. Единственное, что их связывало - их мечты.
В основе сюжета лежит реальная история любви между болливудской кинодивой Моникой Веди и мафиози Абу Салемом, которая долго была главной темой гламурных журналов.

http://www.imdb.com/title/tt0495032/?ref_=plg_rt_1
Возраст: 12+ (зрителям, достигшим 12 лет)

Релиз от: NNMClub

Продолжительность: 02:00:25
Качество видео: BDRemux
Перевод: Многоголосый закадровый
Субтитры: Английские

Видео: AVC/H.264, 1920x1080, ~28,4 Mbps
Аудио: 1 AC3, 6 ch, 384 kbps - Русский, многоголосый (Формат АВ)
Аудио: 2 DTS-HD MA, 6 ch, 2404 kbps - Хинди
Код: Выделить всё
Complete name               : Gangster.2006.BDRemux.NNMClub.mkv
Format                      : Matroska
Format version              : Version 4 / Version 2
File size                   : 26.2 GiB
Duration                    : 2 h 0 min
Overall bit rate mode       : Variable
Overall bit rate            : 31.1 Mb/s
Movie name                  : Gangster.2006.BDRemux.NNMClub
Encoded date                : UTC 2018-04-07 22:03:37
Writing application         : mkvmerge v8.3.0 ('Over the Horizon') 64bit
Writing library             : libebml v1.3.1 + libmatroska v1.4.2

Video
ID                          : 1
Format                      : AVC
Format/Info                 : Advanced Video Codec
Format profile              : [url=http://nnmclub.to/mailto:High@L4.1]High@L4.1[/url]
Format settings             : CABAC / 4 Ref Frames
Format settings, CABAC      : Yes
Format settings, ReFrames   : 4 frames
Codec ID                    : V_MPEG4/ISO/AVC
Duration                    : 2 h 0 min
Bit rate mode               : Variable
Bit rate                    : 28.4 Mb/s
Maximum bit rate            : 35.0 Mb/s
Width                       : 1 920 pixels
Height                      : 1 080 pixels
Display aspect ratio        : 16:9
Frame rate mode             : Constant
Frame rate                  : 24.000 FPS
Standard                    : NTSC
Color space                 : YUV
Chroma subsampling          : 4:2:0
Bit depth                   : 8 bits
Scan type                   : Progressive
Bits/(Pixel*Frame)          : 0.570
Stream size                 : 23.8 GiB (91%)
Title                       : Gangster.2006.BDRemux
Language                    : Hindi
Default                     : Yes
Forced                      : No
Color range                 : Limited
Color primaries             : BT.709
Transfer characteristics    : BT.709
Matrix coefficients         : BT.709

Audio #1
ID                          : 2
Format                      : AC-3
Format/Info                 : Audio Coding 3
Codec ID                    : A_AC3
Duration                    : 2 h 0 min
Bit rate mode               : Constant
Bit rate                    : 384 kb/s
Channel(s)                  : 6 channels
Channel positions           : Front: L C R, Side: L R, LFE
Sampling rate               : 48.0 kHz
Frame rate                  : 31.250 FPS (1536 SPF)
Bit depth                   : 16 bits
Compression mode            : Lossy
Stream size                 : 330 MiB (1%)
Title                       : AC3 5.1 @ 384 kbps - MVO, Формат АВ
Language                    : Russian
Service kind                : Complete Main
Default                     : No
Forced                      : No

Audio #2
ID                          : 3
Format                      : DTS
Format/Info                 : Digital Theater Systems
Format profile              : MA / Core
Codec ID                    : A_DTS
Duration                    : 2 h 0 min
Bit rate mode               : Variable / Constant
Bit rate                    : 2 404 kb/s / 1 509 kb/s
Channel(s)                  : 6 channels
Channel positions           : Front: L C R, Side: L R, LFE
Sampling rate               : 48.0 kHz
Frame rate                  : 93.750 FPS (512 SPF)
Bit depth                   : 16 bits
Compression mode            : Lossless / Lossy
Stream size                 : 2.02 GiB (8%)
Title                       : DTS-HD MA 5.1 @ 2406 kbps - Original
Language                    : Hindi
Default                     : No
Forced                      : No

Text
ID                          : 4
Format                      : UTF-8
Codec ID                    : S_TEXT/UTF8
Codec ID/Info               : UTF-8 Plain Text
Duration                    : 1 h 58 min
Bit rate                    : 30 b/s
Count of elements           : 754
Stream size                 : 26.4 KiB (0%)
Language                    : English
Default                     : No
Forced                      : No

Menu
00:00:00.000                : en:00:00:00.000
00:00:13.625                : en:00:00:13.625
00:02:00.542                : en:00:02:00.542
00:09:40.000                : en:00:09:40.000
00:15:38.458                : en:00:15:38.458
00:21:56.000                : en:00:21:56.000
00:22:08.125                : en:00:22:08.125
00:27:21.625                : en:00:27:21.625
00:33:46.917                : en:00:33:46.917
00:39:09.833                : en:00:39:09.833
00:45:33.667                : en:00:45:33.667
00:53:13.000                : en:00:53:13.000
00:58:22.625                : en:00:58:22.625
00:58:28.417                : en:00:58:28.417
01:00:11.625                : en:01:00:11.625
01:02:56.625                : en:01:02:56.625
01:10:51.583                : en:01:10:51.583
01:12:43.458                : en:01:12:43.458
01:17:34.667                : en:01:17:34.667
01:20:19.500                : en:01:20:19.500
01:21:20.333                : en:01:21:20.333
01:27:39.417                : en:01:27:39.417
01:30:58.583                : en:01:30:58.583
01:38:26.625                : en:01:38:26.625
01:38:41.833                : en:01:38:41.833
01:53:44.292                : en:01:53:44.292
01:55:22.542                : en:01:55:22.542

Скриншоты:





Время раздачи: 24/7 (до появления первых 3-5 скачавших)
Не забывайте говорить Спасибо. Не уходите с раздачи!   
Торрент: Зарегистрирован [08 апр 2018, 10:40] Для скачивания .torrent
необходима регистрация
Или скачать с помощью
MediaGet
Статус:
Проверен
 
.torrent скачан: 0 раз
Хэш: 0a9dde626651d84ca5c8fefd0553104dd41fbda8
Размер: 26.19 ГБ (28 122 197 921 байт)
   Стать Автором раздачи
   
Цитата
  • Похожие торренты
    Ответы
    Просмотры
    Последнее сообщение

Вернуться в Индийское кино

Кто сейчас на конференции

Сейчас эту тему просматривают: нет зарегистрированных пользователей и гости: 1