NG. Самые жуткие убийцы / World's Creepiest Killers (2009) BDRip [720p]

 Статистика раздачи 
Размер: 1.73 ГБ   |  Зарегистрирован: 17 сен 2013, 11:32   |   .torrent скачан: 1 раз
Сидеров: 0  [ 0 байт/сек ]     Личеров: 3  [ 0 байт/сек ]  
  
Аватара пользователя
Администратор
Администратор
Автор темы
Раздал: 24.47 ТБ
Скачал: 388.83 ГБ
Ратио: 145.335
Сообщения: 6031
Стаж: 7 лет 2 месяца 14 дней
Откуда: Lithuania

NG. Самые жуткие убийцы / World's Creepiest Killers



Оригинальное название: World's Creepiest Killers
Дата выхода: 2009
Режиссёр: Gayle Young
Текст читал: Игорь Тарадайкин
Страна: США, National Geographic Television
Продолжительность: 00:45:07
Жанр: Документальный, научно-познавательный, природа
Перевод: Одноголосый закадровый (профессиональный)

Описание: Гигантские пауки, болотные монстры и прожорливые бесформенные твари - привычные персонажи фильмов ужасов, но в этом фильме эти жуткие создания реальны. Кто из этих созданий самые жуткие убийцы? - ядовитые медузы, убивающие человека одним легким прикосновением, гигантские питоны, способные проглотить крупное животное, мурены, крокодилы или смертоносные пчелы...
Кто из них наиболее опасен для человека?

Контейнер: MKV
Качество HD: BDRip 720p
Формат аудио: AC3
Формат видео: H.264
Видео: MPEG-4 AVC/H.264, ~ 5 303 Кбит/с, 1280 x 720, BDRip [720p]
Аудио: AC3, 2.0 ch, 192 Кбит/с

Код: Выделить всё
General
Unique ID : 189239817943809435985898930177893222120 (0x8E5E43616467BA359FDC95BCE5D846E8)
Complete name : M:\РЕЛИЗЫ\Samie.zhytkie.ubiytsi.2009.x264.HDTVRip.720p.mkv
Format : Matroska
Format version : Version 1
File size : 1.73 GiB
Duration : 45mn 7s
Overall bit rate : 5 500 Kbps
Encoded date : UTC 2012-02-24 16:20:43
Writing application : mkvmerge v2.1.0 ('Another Place To Fall') built on Aug 19 2007 13:40:07
Writing library : libebml v0.7.7 + libmatroska v0.8.1

Video
ID : 1
Format : AVC
Format/Info : Advanced Video Codec
Format profile : [email protected]
Format settings, CABAC : Yes
Format settings, ReFrames : 5 frames
Codec ID : V_MPEG4/ISO/AVC
Duration : 45mn 7s
Bit rate : 5 303 Kbps
Width : 1 280 pixels
Height : 720 pixels
Display aspect ratio : 16:9
Frame rate mode : Constant
Frame rate : 25.000 fps
Color space : YUV
Chroma subsampling : 4:2:0
Bit depth : 8 bits
Scan type : Progressive
Bits/(Pixel*Frame) : 0.230
Stream size : 1.64 GiB (95%)
Writing library : x264 core 98 r1649 c54c47d
Encoding settings : cabac=1 / ref=5 / deblock=1:-3:-3 / analyse=0x3:0x133 / me=umh / subme=10 / psy=1 / psy_rd=1.00:0.10 / mixed_ref=1 / me_range=48 / chroma_me=1 / trellis=2 / 8x8dct=1 / cqm=0 / deadzone=21,11 / fast_pskip=0 / chroma_qp_offset=-3 / threads=6 / sliced_threads=0 / nr=0 / decimate=1 / interlaced=0 / constrained_intra=0 / bframes=3 / b_pyramid=2 / b_adapt=2 / b_bias=0 / direct=3 / weightb=1 / weightp=2 / keyint=250 / keyint_min=25 / scenecut=40 / intra_refresh=0 / rc_lookahead=40 / rc=2pass / mbtree=1 / bitrate=5303 / ratetol=1.0 / qcomp=0.60 / qpmin=10 / qpmax=51 / qpstep=4 / cplxblur=20.0 / qblur=0.5 / ip_ratio=1.40 / aq=1:1.00
Language : English
Default : Yes
Forced : No

Audio
ID : 2
Format : AC-3
Format/Info : Audio Coding 3
Mode extension : CM (complete main)
Format settings, Endianness : Big
Codec ID : A_AC3
Duration : 45mn 7s
Bit rate mode : Constant
Bit rate : 192 Kbps
Channel(s) : 2 channels
Channel positions : Front: L R
Sampling rate : 48.0 KHz
Bit depth : 16 bits
Compression mode : Lossy
Stream size : 62.0 MiB (3%)
Language : Russian
Default : Yes
Forced : No
   
Торрент: Зарегистрирован [17 сен 2013, 11:32] Скачать торрент Магнет ссылка
Скачать торрент
[ Размер 18.1 КБ / Просмотров 190 ]
Статус:
Проверен
 
.torrent скачан: 1 раз
Размер: 1.73 ГБ (1 861 524 044 байт)
   
 
 
Цитата

Вернуться в National Geographic

Кто сейчас на конференции

Сейчас эту тему просматривают: нет зарегистрированных пользователей и гости: 1