(Dark Electro | Electro-Industrial) [WEB] Antibody - Revolution Dance - 2018, FLAC (tracks), lossless

 Статистика раздачи 
Размер: 419.77 МБ   |  Зарегистрирован: 13 июл 2018, 18:29   |   .torrent скачан: 2 раз
Сидеров: 6  [ 0 байт/сек ]     Личеров: 3  [ 0 байт/сек ]  
  
Аватара пользователя
 
Раздал: 1.3 ТБ
Скачал: 9.74 ГБ
Ратио: 136.631
Сообщения: 139717
Стаж: 2 года 2 месяца 22 дня

Antibody - Revolution Dance





• Жанр: Dark Electro | Electro-Industrial
• Носитель: WEB
• Год издания: 2018
• Издатель (лейбл) darkTunes
• Страна-производитель релиза: Germany
• Аудиокодек: FLAC (*.flac)
• Тип рипа: tracks
• Продолжительность: 00:55:34
• Источник (релизер): NTScorpio666 ®
• WEB релиз: bandcamp
• Наличие сканов: front

01 - Man In A Mask (00:04:23)
02 - Ouroboros (00:04:27)
03 - I See Them (00:03:51)
04 - Shut Your Mouth (00:04:00)
05 - Damage Done (feat. Technolorgy) (00:03:57)
06 - Kurz vorm Ausrasten (00:04:11)
07 - Revolution Dance (00:03:49)
08 - Secrets (Vocal Version feat. Avarice In Audio) (00:04:22)
09 - Tears (00:04:35)
10 - I See Them (Grendel Remix) (00:04:42)
11 - Secrets (Cyferdyne Remix) (00:04:08)
12 - Ouroboros (Kant Kino Rework) (00:04:36)
13 - Tears (Cease2Xist Remix) (00:04:27)

foobar2000 1.4 beta 17 / Dynamic Range Meter 1.1.1
log date: 2018-07-13 10:35:45
--------------------------------------------------------------------------------
Analyzed: Antibody / Revolution Dance
--------------------------------------------------------------------------------
DR Peak RMS Duration Track
--------------------------------------------------------------------------------
DR6 0.00 dB -7.40 dB 4:23 01-Man In A Mask
DR6 0.00 dB -7.41 dB 4:27 02-Ouroboros
DR6 0.00 dB -7.89 dB 3:51 03-I See Them
DR5 0.00 dB -6.16 dB 4:00 04-Shut Your Mouth
DR6 0.00 dB -7.50 dB 3:58 05-Damage Done (feat. Technolorgy)
DR7 0.00 dB -8.15 dB 4:11 06-Kurz vorm Ausrasten
DR6 0.00 dB -7.47 dB 3:50 07-Revolution Dance
DR6 0.00 dB -7.26 dB 4:23 08-Secrets (Vocal Version feat. Avarice In Audio)
DR7 0.00 dB -7.76 dB 4:35 09-Tears
DR6 0.00 dB -7.91 dB 4:42 10-I See Them (Grendel Remix)
DR6 0.00 dB -6.97 dB 4:09 11-Secrets (Cyferdyne Remix)
DR5 0.00 dB -6.35 dB 4:37 12-Ouroboros (Kant Kino Rework)
DR7 0.00 dB -8.65 dB 4:28 13-Tears (Cease2Xist Remix)
--------------------------------------------------------------------------------
Number of tracks: 13
Official DR value: DR6
Samplerate: 44100 Hz
Channels: 2
Bits per sample: 16
Bitrate: 928 kbps
Codec: FLAC
================================================================================

Код: Выделить всё
-----------------------
DON'T MODIFY THIS FILE
-----------------------
PERFORMER: auCDtect Task Manager, ver. 1.6.0 RC1 build 1.6.0.1
Copyright (c) 2008-2010 y-soft. All rights reserved
[url=http://y-soft.org]http://y-soft.org[/url]
ANALYZER: auCDtect: CD records authenticity detector, version 0.8.2
Copyright (c) 2004 Oleg Berngardt. All rights reserved.
Copyright (c) 2004 Alexander Djourik. All rights reserved.
FILE: 13 - Tears (Cease2Xist Remix).flac
  Size: 31058243 Hash: C6AD581F7B5FEFD6F53146A26A6CBD41 Accuracy: -m0
  Conclusion: CDDA 99%
  Signature: E4250149EC123237D383037009860B80947172E6
FILE: 12 - Ouroboros (Kant Kino Rework).flac
  Size: 35400504 Hash: 867F056CB51383AF210883A32DA6C81C Accuracy: -m0
  Conclusion: CDDA 100%
  Signature: 9B21C772E874D92F5397BD2443E00656B91CCC61
FILE: 11 - Secrets (Cyferdyne Remix).flac
  Size: 29861967 Hash: 14B6B44081BB03BB0C1748BBD5B50E95 Accuracy: -m0
  Conclusion: CDDA 100%
  Signature: 46488789ACDCE069A4C9FA2C0609B02801B98B28
FILE: 10 - I See Them (Grendel Remix).flac
  Size: 30585205 Hash: E722BE12C65E77FD67162900E0B3C4F9 Accuracy: -m0
  Conclusion: CDDA 100%
  Signature: B836C7220E2FF53C8E7441AEC74887D266B9FDE0
FILE: 09 - Tears.flac
  Size: 38808894 Hash: 00A59195853C8144D11C7921B5EE60AF Accuracy: -m0
  Conclusion: CDDA 99%
  Signature: 037C5D923E35340A94151CE3D83D10030BDC128E
FILE: 08 - Secrets (Vocal Version feat. Avarice In Audio).flac
  Size: 35253822 Hash: AD94C6290D5CAAEE1183A327880A8034 Accuracy: -m0
  Conclusion: CDDA 100%
  Signature: F7772FCA4A89AE6DE68259AC3B53ED4386962307
FILE: 07 - Revolution Dance.flac
  Size: 32064648 Hash: 79148BADD8F672BC05E257331DC2A8B8 Accuracy: -m0
  Conclusion: CDDA 100%
  Signature: A2AECF65D30DE104A8BE5768D849A04D0A95F490
FILE: 06 - Kurz vorm Ausrasten.flac
  Size: 36174875 Hash: 62999807636252630CFFAB0FD2D32CB0 Accuracy: -m0
  Conclusion: CDDA 99%
  Signature: 9DEF7D94BEE4CDF1C7B444DD488587FE0566EB41
FILE: 05 - Damage Done (feat. Technolorgy).flac
  Size: 30628840 Hash: 7486246D5F7B4DB3BC335E4A279846C9 Accuracy: -m0
  Conclusion: CDDA 100%
  Signature: 618B518B44D80FAEA775D53B4C38972112377B76
FILE: 04 - Shut Your Mouth.flac
  Size: 33175797 Hash: FFD16D3615516D9A9AD016539FC248AD Accuracy: -m0
  Conclusion: CDDA 100%
  Signature: 8CB2E281A0A2346C8B6E9FCE5B7C449AA57CB05C
FILE: 03 - I See Them.flac
  Size: 31150169 Hash: 66127C6BCF10A5AADDE4CCB845689F02 Accuracy: -m0
  Conclusion: CDDA 100%
  Signature: B096EAA15C651D9E68962FEC089331DA0DBF627C
FILE: 02 - Ouroboros.flac
  Size: 36109874 Hash: 5DCE56BCA348F8D72F3BD7B756B736A8 Accuracy: -m0
  Conclusion: CDDA 100%
  Signature: 29096334429D2AB9915FDE3A13A2A2538F30D57F
FILE: 01 - Man In A Mask.flac
  Size: 33723222 Hash: E6CC3D50661D1693532E6868C3756E14 Accuracy: -m0
  Conclusion: CDDA 100%
  Signature: 40AEC3A4CAE9D47C15A36A2DB5D7EE960296D4A5


Не забывайте говорить Спасибо. Не уходите с раздачи!   
Торрент: Зарегистрирован [13 июл 2018, 18:29] Для скачивания .torrent
необходима регистрация
Или скачать с помощью
MediaGet
Статус:
Проверен
 
.torrent скачан: 2 раз
Размер: 419.77 МБ (440 165 794 байт)
   Стать Автором раздачи
   
Цитата
  • Похожие торренты
    Ответы
    Просмотры
    Последнее сообщение

Вернуться в Electronic

Кто сейчас на конференции

Сейчас эту тему просматривают: нет зарегистрированных пользователей и гости: 1