(Aggrotech | Dark Electro | Gothic) [WEB] ADACTA - Enter The Madhouse - 2018, FLAC (tracks), lossless

 Статистика раздачи 
Размер: 332.81 МБ   |  Зарегистрирован: 13 июл 2018, 18:15   |   .torrent скачан: 0 раз
Сидеров: 2  [ 0 байт/сек ]     Личеров: 1  [ 0 байт/сек ]  
  
Аватара пользователя
 
Раздал: 1.55 ТБ
Скачал: 30.55 ГБ
Ратио: 51.903
Сообщения: 179463
Стаж: 2 года 5 месяцев 13 дней

ADACTA - Enter The Madhouse





• Жанр: Aggrotech | Dark Electro | Gothic
• Носитель: WEB
• Год издания: 2018
• Издатель (лейбл) KL-Dark-Records
• Страна-производитель релиза:
• Страна исполнителя (группы): Germany
• Аудиокодек: FLAC (*.flac)
• Тип рипа: tracks
• Продолжительность: 00:48:06
• Источник (релизер): NTScorpio666 ®
• WEB релиз: bandcamp
• Наличие сканов: front

01 - Flashback (00:04:28)
02 - CU Come (00:05:01)
03 - Machinery EX (00:05:14)
04 - Ich Will Raus (00:05:28)
05 - Maniac Preacher (00:04:20)
06 - Nobody`s Diary (A Yazoo Cover) (00:05:03)
07 - Bete Mich An (00:04:52)
08 - Electro Fire (00:04:07)
09 - Transhuman Toy (What Am I) (00:04:22)
10 - Mirai E Yokoso (00:05:05)

foobar2000 1.3.17 / Замер динамического диапазона (DR) 1.1.1
Дата отчёта: 2018-07-13 21:10:25
--------------------------------------------------------------------------------
Анализ: ADACTA / Enter The Madhouse
--------------------------------------------------------------------------------
DR Пики RMS Продолжительность трека
--------------------------------------------------------------------------------
DR8 -0.25 дБ -9.87 дБ 4:28 01-Flashback
DR9 0.00 дБ -10.50 дБ 5:01 02-CU Come
DR7 -0.06 дБ -9.17 дБ 5:15 03-Machinery EX
DR11 0.00 дБ -13.84 дБ 5:29 04-Ich Will Raus
DR6 -0.34 дБ -9.02 дБ 4:20 05-Maniac Preacher
DR7 0.00 дБ -8.68 дБ 5:04 06-Nobody`s Diary (A Yazoo Cover)
DR6 -0.59 дБ -9.26 дБ 4:53 07-Bete Mich An
DR10 0.00 дБ -11.41 дБ 4:07 08-Electro Fire
DR9 0.00 дБ -11.05 дБ 4:23 09-Transhuman Toy (What Am I)
DR10 0.00 дБ -11.48 дБ 5:06 10-Mirai E Yokoso
--------------------------------------------------------------------------------
Количество треков: 10
Реальные значения DR: DR8
Частота: 44100 Гц
Каналов: 2
Разрядность: 16
Битрейт: 891 кбит/с
Кодек: FLAC
================================================================================

Код: Выделить всё
-----------------------
DON'T MODIFY THIS FILE
-----------------------
PERFORMER: auCDtect Task Manager, ver. 1.6.0 RC1 build 1.6.0.1
Copyright (c) 2008-2010 y-soft. All rights reserved
[url=http://y-soft.org]http://y-soft.org[/url]
ANALYZER: auCDtect: CD records authenticity detector, version 0.8.2
Copyright (c) 2004 Oleg Berngardt. All rights reserved.
Copyright (c) 2004 Alexander Djourik. All rights reserved.
FILE: 10 - Mirai E Yokoso.flac
  Size: 34029149 Hash: 73272B51F7B4DA53767656374382928A Accuracy: -m0
  Conclusion: CDDA 100%
  Signature: AF92613FC77A771831786C8E8B2558AD29DCC7B1
FILE: 09 - Transhuman Toy (What Am I).flac
  Size: 19287145 Hash: 0CF1566DAC9EAB892D95195731217CD5 Accuracy: -m0
  Conclusion: CDDA 100%
  Signature: 9E56D4C8107B8E93CE5141F2B9204407D042480E
FILE: 08 - Electro Fire.flac
  Size: 32463450 Hash: 904EC7A8AD274555D032BFD316B9A865 Accuracy: -m0
  Conclusion: CDDA 100%
  Signature: 051B262F6116E89DD45294A3F88F48C2858B4FA1
FILE: 07 - Bete Mich An.flac
  Size: 38722453 Hash: 61DB155C04DCC8841675F04F3E803F07 Accuracy: -m0
  Conclusion: CDDA 100%
  Signature: 1FD5236958B17B96BF3D98C9D120DA0F08411BFF
FILE: 06 - Nobody`s Diary (A Yazoo Cover).flac
  Size: 42948667 Hash: 873580E77805FB0EC3D708F649825485 Accuracy: -m0
  Conclusion: CDDA 100%
  Signature: D69E367831AF8548555900635ED1F011D6C4ED3C
FILE: 05 - Maniac Preacher.flac
  Size: 32303611 Hash: 14CB6D796B02AB4FECDC2B806E8A7F1E Accuracy: -m0
  Conclusion: CDDA 100%
  Signature: 57000279E8A30F7EFB86C19A0E2B59D70ABA731A
FILE: 04 - Ich Will Raus.flac
  Size: 31731970 Hash: 059D0EFBA2426226C5CE0ED8DFE0C29A Accuracy: -m0
  Conclusion: CDDA 100%
  Signature: C9F144AAC7E5086BA107C349D49F1BE084E113AA
FILE: 03 - Machinery EX.flac
  Size: 39968298 Hash: 2636262DEB6D708C38AA1B6301E24B63 Accuracy: -m0
  Conclusion: CDDA 99%
  Signature: 13F0CAA3A691EF9EEAC86EC92F494EC58E2DD78C
FILE: 02 - CU Come.flac
  Size: 39162196 Hash: 19BB6F15DDDD3D0C39FEA783D1605412 Accuracy: -m0
  Conclusion: CDDA 100%
  Signature: 8DFEAF3C5AB7A153AFB6C1394D0382279C68FB06
FILE: 01 - Flashback.flac
  Size: 34830248 Hash: FEF84547556ECBCD61ACAB898B4801AC Accuracy: -m0
  Conclusion: MPEG 95%
  Signature: 28471F7CA0B47CA8DAB14CB85647323FBE93287D


Не забывайте говорить Спасибо. Не уходите с раздачи!   
Торрент: Зарегистрирован [13 июл 2018, 18:15] Для скачивания .torrent
необходима регистрация
Или скачать с помощью
MediaGet
Статус:
Проверен
 
.torrent скачан: 0 раз
Хэш: 2c4b680e0a95dc71511e40b91e329ec31033d90b
Размер: 332.81 МБ (348 980 530 байт)
   Стать Автором раздачи
   
Цитата
  • Похожие торренты
    Ответы
    Просмотры
    Последнее сообщение

Вернуться в Electronic

Кто сейчас на конференции

Сейчас эту тему просматривают: нет зарегистрированных пользователей и гости: 1