(Aggrotech | Dark Electro) [WEB] Syncfactory - Meat Stall - 2018, FLAC (tracks), lossless

 Статистика раздачи 
Размер: 374.1 МБ   |  Зарегистрирован: 13 июл 2018, 17:40   |   .torrent скачан: 2 раз
Сидеров: 53  [ 0 байт/сек ]     Личеров: 3  [ 0 байт/сек ]  
  
Аватара пользователя
 
Раздал: 969.66 ГБ
Скачал: 3.81 ГБ
Ратио: 254.446
Сообщения: 82049
Стаж: 2 года 18 дней

Syncfactory - Meat Stall





• Жанр: Aggrotech | Dark Electro
• Носитель: WEB
• Год издания: 2018
• Издатель (лейбл) Insane Records
• Страна исполнителя (группы): Finland
• Аудиокодек: FLAC (*.flac)
• Тип рипа: tracks
• Продолжительность: 00:46:52
• Источник (релизер): NTScorpio666 ®
• WEB релиз: bandcamp
• Наличие сканов: front

01 - Meat Stall (00:03:38)
02 - Land Of Frost (00:02:55)
03 - Hell Is Her (00:03:56)
04 - Black Dog (00:03:21)
05 - Pro Tempore (00:03:12)
06 - Talo (00:03:43)
07 - Failure (00:04:05)
08 - Mind's Eye (00:05:12)
09 - Swarm Of Lies (00:03:26)
10 - Second Chance (00:03:40)
11 - Mind's Eye (Holocoder Remix) (00:06:33)
12 - Swarm Of Lies (Distorted World Remix) (00:03:05)

foobar2000 1.4 beta 17 / Dynamic Range Meter 1.1.1
log date: 2018-07-13 10:35:57
--------------------------------------------------------------------------------
Analyzed: Syncfactory / Meat Stall
--------------------------------------------------------------------------------
DR Peak RMS Duration Track
--------------------------------------------------------------------------------
DR6 -0.31 dB -7.14 dB 3:39 01-Meat Stall
DR5 -0.31 dB -6.44 dB 2:55 02-Land Of Frost
DR5 -0.31 dB -5.61 dB 3:56 03-Hell Is Her
DR5 -0.31 dB -6.16 dB 3:21 04-Black Dog
DR6 -0.31 dB -7.10 dB 3:13 05-Pro Tempore
DR6 -0.31 dB -7.23 dB 3:44 06-Talo
DR5 -0.31 dB -7.05 dB 4:06 07-Failure
DR5 -0.31 dB -6.84 dB 5:13 08-Mind's Eye
DR5 -0.31 dB -6.31 dB 3:27 09-Swarm Of Lies
DR6 -0.31 dB -7.27 dB 3:40 10-Second Chance
DR6 -0.31 dB -7.64 dB 6:33 11-Mind's Eye (Holocoder Remix)
DR6 -0.31 dB -7.67 dB 3:06 12-Swarm Of Lies (Distorted World Remix)
--------------------------------------------------------------------------------
Number of tracks: 12
Official DR value: DR5
Samplerate: 44100 Hz
Channels: 2
Bits per sample: 16
Bitrate: 1040 kbps
Codec: FLAC
================================================================================

Код: Выделить всё
-----------------------
DON'T MODIFY THIS FILE
-----------------------
PERFORMER: auCDtect Task Manager, ver. 1.6.0 RC1 build 1.6.0.1
Copyright (c) 2008-2010 y-soft. All rights reserved
[url=http://y-soft.org]http://y-soft.org[/url]
ANALYZER: auCDtect: CD records authenticity detector, version 0.8.2
Copyright (c) 2004 Oleg Berngardt. All rights reserved.
Copyright (c) 2004 Alexander Djourik. All rights reserved.
FILE: 12 - Swarm Of Lies (Distorted World Remix).flac
  Size: 24157978 Hash: C3B746A043F50C8F16D163C6BDE4A7B1 Accuracy: -m0
  Conclusion: CDDA 99%
  Signature: 3E1E4CE61538A5C17081D76B2DFAD500703569FD
FILE: 11 - Mind's Eye (Holocoder Remix).flac
  Size: 52827576 Hash: 7A0335CD7570971B36EACBB5F4066367 Accuracy: -m0
  Conclusion: CDDA 100%
  Signature: F0E37B233711CCB64FEEAA3889AFBB87F9D67FF4
FILE: 10 - Second Chance.flac
  Size: 29834276 Hash: 4DB7D02292AA7255C4EE72D742FD3206 Accuracy: -m0
  Conclusion: CDDA 100%
  Signature: CFE587B637455FA2E85C9AE97473DA7A549030F1
FILE: 09 - Swarm Of Lies.flac
  Size: 30067297 Hash: 65CAB3B974A3AD24CA0782A873824C12 Accuracy: -m0
  Conclusion: CDDA 100%
  Signature: 7D0FB99FEAC673EF7C1F3B146EA22FB3C28534D4
FILE: 08 - Mind's Eye.flac
  Size: 43001775 Hash: 5E969AA36DB0D9DE3C19BC3ADCE82142 Accuracy: -m0
  Conclusion: CDDA 100%
  Signature: 05924D1FE6CF53BE104511414E55057B6246A7B3
FILE: 07 - Failure.flac
  Size: 34474186 Hash: 61C99765FE776DAC9E4733CFC4AB148F Accuracy: -m0
  Conclusion: CDDA 100%
  Signature: A84A2C73E82D863B0960CA437703D066C96817E3
FILE: 06 - Talo.flac
  Size: 31201496 Hash: EB45563FAAF8EA2BC127858634E77FC4 Accuracy: -m0
  Conclusion: CDDA 100%
  Signature: 6B6605986B65DD35A818A92B1A1907D9C16D6CF5
FILE: 05 - Pro Tempore.flac
  Size: 27145899 Hash: B1461A1958E62D98DC788699C11D716E Accuracy: -m0
  Conclusion: CDDA 100%
  Signature: F0DE54FCD1BCC5E7F3D5EB0220512928B92C270E
FILE: 04 - Black Dog.flac
  Size: 26770812 Hash: B38BCC757A1641C00FEE2318F2C4DCAE Accuracy: -m0
  Conclusion: CDDA 100%
  Signature: 63EE27A752FC3567F1327FAAF600D8BBCD59AFA9
FILE: 03 - Hell Is Her.flac
  Size: 34774970 Hash: 1367825D0FAC7EFC03679809C0C3B4E5 Accuracy: -m0
  Conclusion: CDDA 100%
  Signature: 1D94929F393BCA104E02F209543054D560995311
FILE: 02 - Land Of Frost.flac
  Size: 24727716 Hash: 0DB96B1A114115C42BAB841FBF1F5A79 Accuracy: -m0
  Conclusion: CDDA 100%
  Signature: 53D08F37B995AFEB720FFBA52B3BEAE38A9B93F1
FILE: 01 - Meat Stall.flac
  Size: 31376696 Hash: 6A273F3E91E5D90D036B79586F90CB17 Accuracy: -m0
  Conclusion: CDDA 100%
  Signature: 4EF4A9FE007C944A9AA9D6ECBC9B5337FB65E5EE


   
Торрент: Зарегистрирован [13 июл 2018, 17:40] Electronic Скачать торрент Магнет ссылка
Скачать торрент
[ Размер 15.75 КБ / Просмотров 4 ]
Статус:
Проверен
 
.torrent скачан: 2 раз
Размер: 374.1 МБ (392 267 409 байт)
   Стать Автором раздачи
 
 
Цитата

Вернуться в Electronic

Кто сейчас на конференции

Сейчас эту тему просматривают: нет зарегистрированных пользователей и гости: 1