(EBM | Industrial) [WEB] 2nd Face - Nihilum (EP) - 2018, FLAC (tracks), lossless

 Статистика раздачи 
Размер: 191.31 МБ   |  Зарегистрирован: 02 июл 2018, 17:02   |   .torrent скачан: 0 раз
Сидеров: 7  [ 0 байт/сек ]     Личеров: 2  [ 0 байт/сек ]  
  
Аватара пользователя
 
Раздал: 1.3 ТБ
Скачал: 9.74 ГБ
Ратио: 136.631
Сообщения: 139717
Стаж: 2 года 2 месяца 22 дня

2̵n̵d̵ ̵f̷a̶c̴e̷ - Nihilum





• Жанр: EBM | Industrial
• Носитель: WEB
• Год издания: 2018
• Издатель (лейбл) Самиздат
• Номер по каталогу:
• Страна исполнителя (группы): Germany
• Аудиокодек: FLAC (*.flac)
• Тип рипа: tracks
• Продолжительность: 00:28:30
• Источник (релизер): NTDMMANIAC ®
• WEB релиз: bandcamp
• Наличие сканов: front

01 - Nihilum (Essential) (00:06:01)
02 - Long Live Humanity (00:04:36)
03 - Nuclear Winter Is Coming (00:04:36)
04 - Blind Wanderer (00:05:22)
05 - Nihilum (Director's Cut) (00:07:53)

foobar2000 1.2.5 / Замер динамического диапазона (DR) 1.1.1
Дата отчёта: 2018-07-02 19:21:46
--------------------------------------------------------------------------------
Анализ: 2̵n̵d̵ ̵f̷a̶c̴e̷ / Nihilum
--------------------------------------------------------------------------------
DR Пики RMS Продолжительность трека
--------------------------------------------------------------------------------
DR7 -0.10 дБ -9.51 дБ 6:01 01-Nihilum (Essential)
DR8 -0.10 дБ -10.64 дБ 4:36 02-Long Live Humanity
DR7 -0.10 дБ -8.70 дБ 4:37 03-Nuclear Winter Is Coming
DR7 -0.10 дБ -9.21 дБ 5:23 04-Blind Wanderer
DR7 -0.10 дБ -9.76 дБ 7:53 05-Nihilum (Director's Cut)
--------------------------------------------------------------------------------
Количество треков: 5
Реальные значения DR: DR7
Частота: 44100 Гц
Каналов: 2
Разрядность: 16
Битрейт: 945 кбит/с
Кодек: FLAC
================================================================================

Код: Выделить всё
-----------------------
DON'T MODIFY THIS FILE
-----------------------
PERFORMER: auCDtect Task Manager, ver. 1.6.0 RC1 build 1.6.0.1
Copyright (c) 2008-2010 y-soft. All rights reserved
[url=http://y-soft.org]http://y-soft.org[/url]
ANALYZER: auCDtect: CD records authenticity detector, version 0.8.2
Copyright (c) 2004 Oleg Berngardt. All rights reserved.
Copyright (c) 2004 Alexander Djourik. All rights reserved.
FILE: 05 - Nihilum (Director's Cut).flac
  Size: 55984711 Hash: 4ADF273CEF003CCF52D02C5A5588F59F Accuracy: -m0
  Conclusion: CDDA 100%
  Signature: A67804960BEEAE9929996DC64B6A8D2A45A58558
FILE: 04 - Blind Wanderer.flac
  Size: 37553532 Hash: E44E1E3CFF3F244ED2C54D0FB78B7A67 Accuracy: -m0
  Conclusion: CDDA 100%
  Signature: E94A2BDE9D634D9BF289BBE498CF2697962CA188
FILE: 03 - Nuclear Winter Is Coming.flac
  Size: 32058312 Hash: 70A5809FA7A18C5567894412C2D878A4 Accuracy: -m0
  Conclusion: CDDA 100%
  Signature: F55856F6689A4D886071D7B4016F47B21026CF28
FILE: 02 - Long Live Humanity.flac
  Size: 29924701 Hash: 3EF15AE536AC5C93E40BFB6EC0A500FB Accuracy: -m0
  Conclusion: CDDA 99%
  Signature: A9F118F28D64021CDE2841D67705F3CF04957E77
FILE: 01 - Nihilum (Essential).flac
  Size: 43797585 Hash: F970366644D767DE57F32065A6E64582 Accuracy: -m0
  Conclusion: CDDA 100%
  Signature: DE546EC2E6A1775ABF71103313BF47ABF4CE81D4


Не забывайте говорить Спасибо. Не уходите с раздачи!   
Торрент: Зарегистрирован [02 июл 2018, 17:02] Для скачивания .torrent
необходима регистрация
Или скачать с помощью
MediaGet
Статус:
Проверен
 
.torrent скачан: 0 раз
Размер: 191.31 МБ (200 601 789 байт)
   Стать Автором раздачи
   
Цитата
  • Похожие торренты
    Ответы
    Просмотры
    Последнее сообщение

Вернуться в Electronic

Кто сейчас на конференции

Сейчас эту тему просматривают: нет зарегистрированных пользователей и гости: 1