(EBM | Industrial) [WEB] 2nd Face - Nemesis - 2017, FLAC (tracks), lossless

 Статистика раздачи 
Размер: 475.04 МБ   |  Зарегистрирован: 02 июл 2018, 17:09   |   .torrent скачан: 1 раз
Сидеров: 2  [ 0 байт/сек ]     Личеров: 1  [ 0 байт/сек ]  
  
Аватара пользователя
Я на сайте
 
Раздал: 972.26 ГБ
Скачал: 3.81 ГБ
Ратио: 255.128
Сообщения: 82515
Стаж: 2 года 19 дней

2̵n̵d̵ ̵f̷a̶c̴e̷ - Nemesis





• Жанр: EBM | Industrial
• Носитель: WEB
• Год издания: 2017
• Издатель (лейбл) Самиздат
• Страна исполнителя (группы): Germany
• Аудиокодек: FLAC (*.flac)
• Тип рипа: tracks
• Продолжительность: 01:14:49
• Источник (релизер): NTDMMANIAC ®
• WEB релиз: bandcamp
• Наличие сканов: front

01 - Instinct (00:06:36)
02 - Movement (00:04:14)
03 - Divine (00:06:40)
04 - Mindlapse (00:05:50)
05 - Nemesis (00:05:08)
06 - Deathspread (00:05:50)
07 - Weapon (00:06:11)
08 - Brother (00:07:51)
09 - 1St Of His Name (00:05:21)
10 - Now You Can See (00:05:59)
11 - Punisher (00:04:52)
12 - Insanity (00:10:12)

foobar2000 1.2.5 / Замер динамического диапазона (DR) 1.1.1
Дата отчёта: 2017-04-15 21:42:18
--------------------------------------------------------------------------------
Анализ: 2̵n̵d̵ ̵f̷a̶c̴e̷ / Nemesis
--------------------------------------------------------------------------------
DR Пики RMS Продолжительность трека
--------------------------------------------------------------------------------
DR8 -1.44 дБ -11.42 дБ 6:36 01-Instinct
DR7 -1.74 дБ -10.44 дБ 4:14 02-Movement
DR7 -1.59 дБ -9.99 дБ 6:41 03-Divine
DR8 -1.70 дБ -11.91 дБ 5:51 04-Mindlapse
DR9 -0.40 дБ -12.02 дБ 5:08 05-Nemesis
DR8 -1.59 дБ -10.68 дБ 5:51 06-Deathspread
DR8 -1.00 дБ -10.38 дБ 6:12 07-Weapon
DR7 -0.10 дБ -9.67 дБ 7:51 08-Brother
DR8 -1.30 дБ -11.53 дБ 5:22 09-1st Of His Name
DR7 -1.40 дБ -9.62 дБ 6:00 10-Now You Can See
DR7 -1.39 дБ -10.09 дБ 4:52 11-Punisher
DR8 -0.60 дБ -11.54 дБ 10:12 12-Insanity
--------------------------------------------------------------------------------
Количество треков: 12
Реальные значения DR: DR8
Частота: 44100 Гц
Каналов: 2
Разрядность: 16
Битрейт: 862 кбит/с
Кодек: FLAC
================================================================================

Код: Выделить всё
-----------------------
DON'T MODIFY THIS FILE
-----------------------
PERFORMER: auCDtect Task Manager, ver. 1.6.0 RC1 build 1.6.0.1
Copyright (c) 2008-2010 y-soft. All rights reserved
[url=http://y-soft.org]http://y-soft.org[/url]
ANALYZER: auCDtect: CD records authenticity detector, version 0.8.2
Copyright (c) 2004 Oleg Berngardt. All rights reserved.
Copyright (c) 2004 Alexander Djourik. All rights reserved.
FILE: 12 - Insanity.flac
  Size: 66085562 Hash: B585170A92844A83444C409F9F5B2F38 Accuracy: -m0
  Conclusion: CDDA 100%
  Signature: 7A05C5B000FC9B60E89A78F11C5A4FBCC8A60AAF
FILE: 11 - Punisher.flac
  Size: 34792859 Hash: 2B30572698B42071BCEC1E5077043701 Accuracy: -m0
  Conclusion: CDDA 100%
  Signature: 83425905553C6EF327D930A985002DA9EAC77498
FILE: 10 - Now You Can See.flac
  Size: 41573269 Hash: 1243CFFA871CF4E7FC5F4C826DE8561A Accuracy: -m0
  Conclusion: CDDA 99%
  Signature: EA4884E028AE928C8D0DB29B45AAD05C45EF6692
FILE: 09 - 1st Of His Name.flac
  Size: 32765549 Hash: DDDB90D7F2F0AF7DA133FC4AAF9DE693 Accuracy: -m0
  Conclusion: CDDA 99%
  Signature: 9424E3C123BA6ECF902B9B113335732C3A79386D
FILE: 08 - Brother.flac
  Size: 50683615 Hash: 52D551BC0680EB5569FFC1791E563C85 Accuracy: -m0
  Conclusion: CDDA 100%
  Signature: 6F22DCD0A49C2B0751B3C070E36DED8CC0628532
FILE: 07 - Weapon.flac
  Size: 44319385 Hash: 37520612E9FB3E007BFE89F6761E81DD Accuracy: -m0
  Conclusion: CDDA 99%
  Signature: 3E57786885066ED93A19A5177971F2A54519660E
FILE: 06 - Deathspread.flac
  Size: 37662351 Hash: 60BC5C9E4CF492B5EA8844B0EDED2B7C Accuracy: -m0
  Conclusion: CDDA 100%
  Signature: D1FC075A42ED247FC3B6D9096E4C22200FF7E363
FILE: 05 - Nemesis.flac
  Size: 30511025 Hash: 96BF5EB7952AE6DD6FA15BFD3B20E523 Accuracy: -m0
  Conclusion: CDDA 100%
  Signature: 1AD27C873660235987E65213B894967EFC2E3697
FILE: 04 - Mindlapse.flac
  Size: 39311487 Hash: AA665461A8931D8D7D9746C6969DAD8A Accuracy: -m0
  Conclusion: CDDA 100%
  Signature: 891E95ACF4490BF9780809B83F91DF5EA2D7E66C
FILE: 03 - Divine.flac
  Size: 45769266 Hash: 4920D086986515D378D3946BC52AB72C Accuracy: -m0
  Conclusion: CDDA 100%
  Signature: A54C343260868B8534CFA5BC13606219D78F27BE
FILE: 02 - Movement.flac
  Size: 28422256 Hash: E6792CBCC011302F1E641F45F59D10AC Accuracy: -m0
  Conclusion: CDDA 100%
  Signature: CB768877F9D3262543DEB7AE5DB7DD73B9E537FF
FILE: 01 - Instinct.flac
  Size: 44647132 Hash: 9650143DA7570B36DC64C8F7E2178438 Accuracy: -m0
  Conclusion: CDDA 100%
  Signature: 800356A0FCC5265B4266AB9FB21F19087B21B088


   
Торрент: Зарегистрирован [02 июл 2018, 17:09] Electronic Скачать торрент Магнет ссылка
Скачать торрент
[ Размер 19.68 КБ / Просмотров 1 ]
Статус:
Проверен
 
.torrent скачан: 1 раз
Размер: 475.04 МБ (498 120 014 байт)
   Стать Автором раздачи
 
 
Цитата
  • Похожие торренты
    Ответы
    Просмотры
    Последнее сообщение

Вернуться в Electronic

Кто сейчас на конференции

Сейчас эту тему просматривают: нет зарегистрированных пользователей и гости: 1