(EBM | Industrial) [WEB] 2nd Face - 1st Of His Name (EP) - 2015, FLAC (tracks), lossless

 Статистика раздачи 
Размер: 152.26 МБ   |  Зарегистрирован: 02 июл 2018, 17:17   |   .torrent скачан: 0 раз
Сидеров: 0  [ 0 байт/сек ]     Личеров: 0  [ 0 байт/сек ]  
  
Аватара пользователя
Я на сайте
 
Раздал: 972.36 ГБ
Скачал: 3.81 ГБ
Ратио: 255.154
Сообщения: 82515
Стаж: 2 года 19 дней

2̵n̵d̵ ̵f̷a̶c̴e̷ - 1st Of His Name





• Жанр: EBM | Industrial
• Носитель: WEB
• Год издания: 2015
• Издатель (лейбл) Самиздат
• Страна исполнителя (группы): Gernany
• Аудиокодек: FLAC (*.flac)
• Тип рипа: tracks
• Продолжительность: 00:23:43
• Источник (релизер): NTDMMANIAC ®
• WEB релиз: bandcamp
• Наличие сканов: front

01 - 1St Of His Name (00:05:22)
02 - Prophecy (00:05:45)
03 - Running (00:05:48)
04 - 1St Of His Name (Club Edit) (00:06:46)

Код: Выделить всё
foobar2000 1.2.5 / Замер динамического диапазона (DR) 1.1.1
Дата отчёта:  2017-04-15 21:41:46
--------------------------------------------------------------------------------
Анализ:   2̵n̵d̵ ̵f̷a̶c̴e̷ / 1st Of His Name
--------------------------------------------------------------------------------
DR         Пики         RMS           Продолжительность трека
--------------------------------------------------------------------------------
DR5       -0.13 дБ    -6.26 дБ      5:22 01-1st Of His Name
DR7       -0.13 дБ    -8.00 дБ      5:46 02-Prophecy
DR5       -0.13 дБ    -6.75 дБ      5:49 03-Running
DR5       -0.13 дБ    -6.31 дБ      6:47 04-1st Of His Name (Club Edit)
--------------------------------------------------------------------------------
Количество треков: 4
Реальные значения DR: DR5
Частота:  44100 Гц
Каналов:  2
Разрядность:   16
Битрейт:  841 кбит/с
Кодек:   FLAC
================================================================================

Код: Выделить всё
-----------------------
DON'T MODIFY THIS FILE
-----------------------
PERFORMER: auCDtect Task Manager, ver. 1.6.0 RC1 build 1.6.0.1
Copyright (c) 2008-2010 y-soft. All rights reserved
[url=http://y-soft.org]http://y-soft.org[/url]
ANALYZER: auCDtect: CD records authenticity detector, version 0.8.2
Copyright (c) 2004 Oleg Berngardt. All rights reserved.
Copyright (c) 2004 Alexander Djourik. All rights reserved.
FILE: 04 - 1st Of His Name (Club Edit).flac
  Size: 43030359 Hash: 57C64EF623FD878FFCFA5B102212BE79 Accuracy: -m0
  Conclusion: CDDA 100%
  Signature: 7237EF82606667A8AA44C34E9B827DA36B784075
FILE: 03 - Running.flac
  Size: 39917345 Hash: BD145549038DD7791D5282CB8000FE50 Accuracy: -m0
  Conclusion: CDDA 100%
  Signature: 13FF3ED1C50E703183F3C36EAB2DC1715E3937B4
FILE: 02 - Prophecy.flac
  Size: 41436919 Hash: BF6BB7FC8A003FF3A7FAD6A814F50FB8 Accuracy: -m0
  Conclusion: CDDA 99%
  Signature: B464F0C2B18CF65C71241A8B3530206859AB1097
FILE: 01 - 1st Of His Name.flac
  Size: 34367602 Hash: 6838B733B1427854B4D8A009FE436806 Accuracy: -m0
  Conclusion: CDDA 100%
  Signature: C04A511C14ED87D2839D3B105F4BE0AA342C17AB


   
Торрент: Зарегистрирован [02 июл 2018, 17:17] Electronic Скачать торрент Магнет ссылка
Скачать торрент
[ Размер 12.61 КБ / Просмотров 1 ]
Статус:
Проверен
 
.torrent скачан: 0 раз
Размер: 152.26 МБ (159 660 081 байт)
   Стать Автором раздачи
 
 
Цитата
  • Похожие торренты
    Ответы
    Просмотры
    Последнее сообщение

Вернуться в Electronic

Кто сейчас на конференции

Сейчас эту тему просматривают: нет зарегистрированных пользователей и гости: 1