Эскобар / Loving Pablo (2017) WEB-DLRip [576p] iPad

 Статистика раздачи 
Размер: 1.73 ГБ   |  Зарегистрирован: 13 июл 2018, 19:27   |   .torrent скачан: 2 раз
Сидеров: 9  [ 0 байт/сек ]     Личеров: 2  [ 0 байт/сек ]  
  
Аватара пользователя
 
Раздал: 1.3 ТБ
Скачал: 9.74 ГБ
Ратио: 136.631
Сообщения: 139717
Стаж: 2 года 2 месяца 22 дня
СообщениеДобавлено: 13 июл 2018, 19:27


Эскобар / Loving Pablo (2017) WEB-DLRip [576p] iPad

«Всё ещё любишь его?»
Год выпуска: 2017
Производство: США
Жанр: Биография, драма, криминал
Продолжительность: 01:45:54

Перевод: Дублированный (iTunes)
Субтитры: Нет
Режиссер: Фернандо Леон Де Араноа
Актеры: Хавьер Бардем, Пенелопа Крус, Питер Сарсгаард, Жульет Рестрепо, Оскар Хаэнада, Фреди Йэт, Рикардо Ниньо, Педро Кальво, Джованни Альварез, Дэвид Валенсиа

Мировая премьера: 6 сентября 2017

https://www.imdb.com/title/tt4682788/?ref_=plg_rt_1

Описание: История восхождения Пабло Эскобара — его стремительного пути к миллиардам, могуществу и непростительным преступлениям. Во всесильного наркобарона влюбляется журналистка, чьи мемуары положены в основу фильма.
Качество: WEB-DLRip 576p
Контейнер: M4V
Видео: H.264, 1024x432, 2.40:1, 2 200 Kbps, 23.976 fps

Аудио: Русский/Дублированный (iTunes), AAC / 2.0 / 128 Kbps / 48.0 KHz
Код: выделить все
Sort Name: Эскобар
XID: Apple:vendor_id:2017-929885
contentID: 1406682356
Screenwriters: Фернандо Леон Де Араноа, Вирхиния Вальехо
Producers: Хавьер Бардем, Эд Кэйтелл III, Калина Коттас
Director: Фернандо Леон Де Араноа
Cast: Хавьер Бардем, Пенелопа Крус, Питер Сарсгаард, Жульет Рестрепо, Оскар Хаенада, Фреди Йэт, Рикардо Ниньо, Педро Кальво, Джованни Альварез, Дэвид Валенсиа
Studio: Escobar Films, B2Y EOOD
Rating: 136
Long Description: История восхождения Пабло Эскобара — его стремительного пути к миллиардам, могуществу и непростительным преступлениям. Во всесильного наркобарона влюбляется журналистка, чьи мемуары положены в основу фильма.
Description: История восхождения Пабло Эскобара — его стремительного пути к миллиардам, могуществу и непростительным преступлениям. Во всесильного наркобарона влюбляется журналистка, чьи мемуары положены в основу фильма.
Release Date: 2018-06-14T07:00:00Z
Genre: Боевики и приключения
Artist: Fernando León de Aranoa
Name: Эскобар
Код: выделить все
General
Complete name : /Users/imac/HandBrake/Loving.Pablo.(SD).(pk).m4v
Format : MPEG-4
Codec ID : M4V
File size : 1.73 GiB
Duration : 1h 45mn
Overall bit rate mode : Variable
Overall bit rate : 2 332 Kbps
Movie name : Эскобар
Performer : Fernando León de Aranoa
Director : Фернандо Леон Де Араноа
Actor : Хавьер Бардем / Пенелопа Крус / Питер Сарсгаард / Жульет Рестрепо / Оскар Хаенада / Фреди Йэт / Рикардо Ниньо / Педро Кальво / Джованни Альварез / Дэвид Валенсиа
Screenplay by : Фернандо Леон Де Араноа / Вирхиния Вальехо
Producer : Хавьер Бардем / Эд Кэйтелл III / Калина Коттас
Production studio : Escobar Films, B2Y EOOD
Genre : Боевики и приключения
ContentType : Short Film
Description : История восхождения Пабло Эскобара — его стремительного пути к миллиардам, могуществу и непростительным преступлениям. Во всесильного наркобарона влюбляется журналистка, чьи мемуары положены в основу фильма.
Recorded date : UTC 2018-06-14 07:00:00
Encoded date : UTC 2018-07-13 09:28:15
Tagged date : UTC 2018-07-13 09:28:46
Cover : Yes
Rating : None
Title/Sort : Эскобар
LongDescription : История восхождения Пабло Эскобара — его стремительного пути к миллиардам, могуществу и непростительным преступлениям. Во всесильного наркобарона влюбляется журналистка, чьи мемуары положены в основу фильма.
AppleStoreCatalogID : 1406682356
Vendor : Apple:vendor_id:2017-929885
ContentRating : ru-movie|18+|400|

Video #1
ID : 1
Format : AVC
Format/Info : Advanced Video Codec
Format profile : High@L3.1
Format settings, CABAC : Yes
Format settings, ReFrames : 9 frames
Codec ID : avc1
Codec ID/Info : Advanced Video Coding
Duration : 1h 45mn
Source duration : 1h 45mn
Bit rate : 2 200 Kbps
Width : 1 024 pixels
Height : 432 pixels
Display aspect ratio : 2.40:1
Frame rate mode : Variable
Frame rate : 23.976 fps
Minimum frame rate : 23.974 fps
Maximum frame rate : 23.981 fps
Color space : YUV
Chroma subsampling : 4:2:0
Bit depth : 8 bits
Scan type : Progressive
Bits/(Pixel*Frame) : 0.207
Stream size : 1.63 GiB (94%)
Source stream size : 1.63 GiB (94%)
Title : Main Program
Writing library : x264 core 155 r2901 7d0ff22
Encoding settings : cabac=1 / ref=9 / deblock=1:0:0 / analyse=0x3:0x113 / me=umh / subme=9 / psy=1 / psy_rd=1.00:0.00 / mixed_ref=1 / me_range=32 / chroma_me=1 / trellis=1 / 8x8dct=1 / cqm=0 / deadzone=21,11 / fast_pskip=1 / chroma_qp_offset=-2 / threads=13 / lookahead_threads=1 / sliced_threads=0 / nr=0 / decimate=1 / interlaced=0 / bluray_compat=0 / constrained_intra=0 / bframes=6 / b_pyramid=2 / b_adapt=2 / b_bias=0 / direct=1 / weightb=1 / open_gop=0 / weightp=2 / keyint=240 / keyint_min=24 / scenecut=40 / intra_refresh=0 / rc_lookahead=40 / rc=2pass / mbtree=1 / bitrate=2200 / ratetol=1.0 / qcomp=0.60 / qpmin=0 / qpmax=69 / qpstep=4 / cplxblur=20.0 / qblur=0.5 / ip_ratio=1.40 / aq=1:1.00
Language : English
Encoded date : UTC 2018-07-13 09:28:15
Tagged date : UTC 2018-07-13 09:28:20
Color range : Limited
Color primaries : BT.709
Transfer characteristics : BT.709
Matrix coefficients : BT.709

Video #2
ID : 4
Format : JPEG
Codec ID : jpeg
Duration : 1h 45mn
Bit rate mode : Variable
Bit rate : 660 bps
Width : 640 pixels
Height : 270 pixels
Display aspect ratio : 2.40:1
Frame rate mode : Variable
Frame rate : 0.002 fps
Minimum frame rate : 0.001 fps
Maximum frame rate : 0.006 fps
Color space : YUV
Chroma subsampling : 4:2:0
Bit depth : 8 bits
Compression mode : Lossy
Bits/(Pixel*Frame) : 1.910
Stream size : 484 KiB (0%)
Title : Chapter Images
Language : English
Encoded date : UTC 2018-07-13 09:28:26
Tagged date : UTC 2018-07-13 09:28:26

Audio
ID : 2
Format : AAC
Format/Info : Advanced Audio Codec
Format profile : LC
Codec ID : 40
Duration : 1h 45mn
Source duration : 1h 45mn
Bit rate mode : Variable
Bit rate : 126 Kbps
Maximum bit rate : 186 Kbps
Channel(s) : 2 channels
Channel positions : Front: L R
Sampling rate : 48.0 KHz
Compression mode : Lossy
Stream size : 95.1 MiB (5%)
Source stream size : 95.1 MiB (5%)
Title : Russian Stereo
Language : Russian
Encoded date : UTC 2018-07-13 09:28:15
Tagged date : UTC 2018-07-13 09:28:23

Menu #1
00:00:00.000 : 1
00:02:47.000 : 2
00:13:05.000 : 3
00:23:39.000 : 4
00:34:37.000 : 5
00:45:46.000 : 6
00:55:39.000 : 7
01:04:46.000 : 8
01:13:29.000 : 9
01:22:51.000 : 10
01:32:34.000 : 11
01:39:48.000 : 12

Menu #2
ID : 3
Codec ID : text
Duration : 1h 45mn
Language : English
Encoded date : UTC 2018-07-13 09:28:23
Tagged date : UTC 2018-07-13 09:28:23
00:00:00.000 : 1
00:02:47.000 : 2
00:13:05.000 : 3
00:23:39.000 : 4
00:34:37.000 : 5
00:45:46.000 : 6
00:55:39.000 : 7
01:04:46.000 : 8
01:13:29.000 : 9
01:22:51.000 : 10
01:32:34.000 : 11
01:39:48.000 : 12
Bit rate mode : VBR

Код: выделить все
x264 [info]: frame I:1406  Avg QP:11.16  size: 78549
x264 [info]: frame P:44991 Avg QP:14.56  size: 22716
x264 [info]: frame B:105968 Avg QP:16.78  size:  5806
x264 [info]: consecutive B-frames:  5.6%  6.6%  5.6% 70.4%  4.0%  5.9%  1.8%
x264 [info]: mb I  I16..4: 10.3% 61.3% 28.4%
x264 [info]: mb P  I16..4:  1.0%  5.9%  2.1%  P16..4: 31.7% 27.2% 17.6%  0.0%  0.0%    skip:14.5%
x264 [info]: mb B  I16..4:  0.1%  0.6%  0.2%  B16..8: 34.3% 11.9%  3.5%  direct: 5.1%  skip:44.3%  L0:38.9% L1:43.6% BI:17.5%
x264 [info]: 8x8 transform intra:64.7% inter:65.5%
x264 [info]: coded y,uvDC,uvAC intra: 88.1% 89.9% 74.6% inter: 26.4% 23.0% 5.4%
x264 [info]: i16 v,h,dc,p: 34% 13%  5% 49%
x264 [info]: i8 v,h,dc,ddl,ddr,vr,hd,vl,hu: 16% 12%  6%  8% 11% 12% 11% 12% 12%
x264 [info]: i4 v,h,dc,ddl,ddr,vr,hd,vl,hu: 14% 11%  3%  8% 14% 14% 13% 11% 12%
x264 [info]: i8c dc,h,v,p: 42% 22% 21% 14%
x264 [info]: Weighted P-Frames: Y:1.0% UV:0.4%
x264 [info]: ref P L0: 57.2% 10.0% 14.4%  5.6%  4.2%  3.1%  2.5%  1.5%  1.5%  0.1%  0.0%
x264 [info]: ref B L0: 80.5%  9.6%  4.4%  2.0%  1.4%  1.1%  0.7%  0.3%
x264 [info]: ref B L1: 95.8%  4.2%
x264 [info]: kb/s:2200.12

Скриншоты
:




Релиз подготовлен для просмотра на Apple TV, iPad, iPhone, iPod Touch.
Для просмотра данного релиза на компьютере с ОС Windows рекомендуется использовать VLC media player
Не забывайте говорить Спасибо. Не уходите с раздачи!   
Торрент: Зарегистрирован [13 июл 2018, 19:27] Для скачивания .torrent
необходима регистрация
Или скачать с помощью
MediaGet
Статус:
Проверен
 
.torrent скачан: 2 раз
Размер: 1.73 ГБ (1 852 268 881 байт)
   Стать Автором раздачи
   
Цитата
  • Похожие торренты
    Ответы
    Просмотры
    Последнее сообщение

Вернуться в Фильмы для iPod, iPhone, iPad

Кто сейчас на конференции

Сейчас эту тему просматривают: нет зарегистрированных пользователей и гости: 1