Sade - Stronger Than Pride (1988) Unofficial Release [FLAC 2.0|192/24|image + .cue|Vinyl-Rip] <R&B, Downtempo>

 Статистика раздачи 
Размер: 1.63 ГБ   |  Зарегистрирован: 21 янв 2018, 16:39   |   .torrent скачан: 7 раз
Сидеров: 3  [ 0 байт/сек ]     Личеров: 4  [ 0 байт/сек ]  
  
Аватара пользователя
 
Раздал: 3.37 ТБ
Скачал: 63.98 ГБ
Ратио: 53.884
Сообщения: 197278
Стаж: 1 год 7 месяцев 29 дней

Sade - Stronger Than Pride (1988)

Страна-производитель диска: Russia
Производство: Not On Label - BL 1017
Жанр: R&B, Downtempo
Продолжительность: 00:42:07
Автор оцифровки: Bigbeer
Кодек: FLAC 2.0
Формат записи: 192/32
Формат раздачи: 192/24
Тип рипа: image+.cue
Треклист:

A1. Love Is Stronger Than Pride (4:17)
A2. Paradise (4:02)
A3. Nothing Can Come Between Us (4:24)
A4. Clean Heart (4:01)
A5. I Never Thought I'd See The Day (4:10)
B1. Haunt My (5:50)
B2. Turn My Back On You (6:07)
B3. Keep Looking (5:22)
B4. Give It Up (3:53)
Код класса состояния винила: EX
Устройство воспроизведения: Technics SL-1200MK3D
Головка звукоснимателя: Audio Technica AT150MLX
Предварительный усилитель: Luxman L-510
Межблочник: Proel Die Hard DHG535LU18
АЦП: E-MU 1212m PCIe
Программа-оцифровщик: Adobe Audition CC 8.0.0.192
Обработка: fade in / out (Adobe Audition CC 8.0.0.192)
Код: Выделить всё
Общее
Полное имя                               : D:\Vinyl\Sade - Stronger Than Pride (1988)[VR, Unofficial Release, Not On Label - BL 1017, Russia]\Sade - Stronger Than Pride.flac
Формат                                   : FLAC
Формат/Информация                        : Free Lossless Audio Codec
Размер файла                             : 1,54 Гбайт
Продолжительность                        : 42 м. 6 с.
Режим общего битрейта                    : Переменный
Общий поток                              : 5224 Кбит/сек
Альбом                                   : Stronger Than Pride
Трек/Всего                               : 9
Исполнитель                              : Sade
Продюсер                                 : Not On Label - BL 1017
Кодирование произвёл                     : Adobe Audition CC 2017
Жанр                                     : R&B/Downtempo
Дата записи                              : 1988
Обложка                                  : Yes
Тип обложки                              : Cover (front)
MIME-тип обложки                         : image/jpeg
Примечание                               : rip by Bigbeer/Technics SL-1200MK3D/Audio Technica AT150MLX/Luxman L-510/Proel Die Hard DHG535LU18 /E-MU 1212m PCIe
catalog                                  : "BL 1017"
cuesheet                                 : REM GENRE R&B/Downtempo / REM DATE 1988 / REM COMMENT rip by Bigbeer/Technics SL-1200MK3D/Audio Technica AT150MLX/Luxman L-510/Proel Die Hard DHG535LU18 /E-MU 1212m PCIe / CATALOG 'BL 1017' / PERFORMER "Sade" / TITLE "Stronger Than Pride" / FILE "Sade - Stronger Than Pride.flac" WAVE /   TRACK 01 AUDIO /     TITLE "Love Is Stronger Than Pride" /     INDEX 01 00:00:00 /   TRACK 02 AUDIO /     TITLE "Paradise" /     INDEX 01 04:17:00 /   TRACK 03 AUDIO /     TITLE "Nothing Can Come Between Us" /     INDEX 01 08:19:18 /   TRACK 04 AUDIO /     TITLE "Clean Heart" /     INDEX 01 12:43:20 /   TRACK 05 AUDIO /     TITLE "I Never Thought I'd See The Day" /     INDEX 01 16:44:40 /   TRACK 06 AUDIO /     TITLE "Haunt My" /     INDEX 01 20:54:43 /   TRACK 07 AUDIO /     TITLE "Turn My Back On You" /     INDEX 01 26:44:44 /   TRACK 08 AUDIO /     TITLE "Keep Looking" /     INDEX 01 32:51:49 /   TRACK 09 AUDIO /     TITLE "Give It Up" /     INDEX 01 38:13:52
Recorded/Location                        : NNM-Club.name

Аудио
Формат                                   : FLAC
Формат/Информация                        : Free Lossless Audio Codec
Продолжительность                        : 42 м. 6 с.
Вид битрейта                             : Переменный
Битрейт                                  : 5224 Кбит/сек
Каналы                                   : 2 канала
Расположение каналов                     : Front: L R
Частота                                  : 192 КГц
Битовая глубина                          : 24 бит
Размер потока                            : 1,54 Гбайт (100%)
Библиотека кодирования                   : libFLAC 1.0.25 (UTC 2007-09-17)

Код: Выделить всё
foobar2000 1.3.17 / Замер динамического диапазона (DR) 1.1.1
Дата отчёта:2018-01-19 22:05:20

--------------------------------------------------------------------------------
Анализ:   Sade / Stronger Than Pride
--------------------------------------------------------------------------------

DR         Пики         RMS           Продолжительность трека
--------------------------------------------------------------------------------
DR13       0.00 дБ   -15.95 дБ      4:17 01-Love Is Stronger Than Pride
DR15      -0.39 дБ   -16.95 дБ      4:02 02-Paradise
DR17      -0.73 дБ   -19.19 дБ      4:24 03-Nothing Can Come Between Us
DR14      -0.89 дБ   -17.68 дБ      4:01 04-Clean Heart
DR13      -1.17 дБ   -19.73 дБ      4:10 05-I Never Thought I'd See The Day
DR12      -1.67 дБ   -16.73 дБ      5:50 06-Haunt My
DR14      -0.01 дБ   -15.77 дБ      6:07 07-Turn My Back On You
DR14      -1.14 дБ   -16.63 дБ      5:22 08-Keep Looking
DR12      -0.31 дБ   -15.67 дБ      3:53 09-Give It Up
--------------------------------------------------------------------------------

Количество треков:9
Реальные значения DR:DR14

Частота:192000 Гц
Каналов:2
Разрядность: 24
Битрейт:5224 кбит/с
Кодек:FLAC
================================================================================



Время раздачи:
24x7
Не забывайте говорить Спасибо. Не уходите с раздачи!   
Торрент: Зарегистрирован [21 янв 2018, 16:39] Для скачивания .torrent
необходима регистрация
Или скачать с помощью
MediaGet
Статус:
Проверен
 
.torrent скачан: 7 раз
Хэш: d3048926114ded2031aafc5845a63e24a651e54e
Размер: 1.63 ГБ (1 748 587 773 байт)
   Стать Автором раздачи
   
Цитата
  • Похожие торренты
    Ответы
    Просмотры
    Последнее сообщение

Вернуться в Vinyl-Rip и Hand-Made

Кто сейчас на конференции

Сейчас эту тему просматривают: нет зарегистрированных пользователей и гости: 1