Hidehiko Matsumoto & Yoshio Kimura - Festival of Enka (1969) [FLAC 2.0|192/24|image+.cue|Vinyl-Rip] <Easy Listening, Sax>

 Статистика раздачи 
Размер: 2.49 ГБ   |  Зарегистрирован: 21 янв 2018, 16:38   |   .torrent скачан: 4 раз
Сидеров: 2  [ 0 байт/сек ]     Личеров: 4  [ 0 байт/сек ]  
  
Аватара пользователя
 
Раздал: 3.37 ТБ
Скачал: 63.98 ГБ
Ратио: 53.884
Сообщения: 197278
Стаж: 1 год 7 месяцев 29 дней

Hidehiko Matsumoto & Yoshio Kimura - Festival of Enka (1969)

Жанр: Easy Listening, Sax
Издание: RCA - JRS - 9031
Продолжительность: 00:33:26 + 00:31:51

Кодек: FLAC 2.0|192/24
Битрейт: Lossless
Тип рипа: tracks

Tenor Sax: Hidehiko Matsumoto
Guitar: Yoshio Kimura & Blue Velvet
Keiko Fuji, Cool Five, Shin'ichi Mori, Mina Aoe Hits Collection
Хидэхико Мацумото и Ёсио Кимура исполняют хиты Кэйко Фудзи, Cool Five, Синъити Мори и Мина Аоэ.

Источник оцифровки: guzonka
Код класса состояния винила: VG
Устройство воспроизведения: Sony PS-6750, Cartridge Audio-Technica AT33EV.
Предварительный усилитель: Ortofon EQA-333
АЦП: Creative EMU-0404 USB
Программа-оцифровщик: WaveLab 6.0

Треклист:
LP1:
01. 命預けます - Inochi Azukemasu
02. 圭子の夢は夜ひらく - Keiko no Yume wa Yoru Hiraku
03. 女のブルース - Onna no Blues
04. 新宿の女 - Shinjuku no Onna
05. ネオン街の女 - Neongai no Onna
06. 生命ぎりぎり - Inochi Girigiri
07. 噂の女 - Uwasa no Onna
08. 逢わずに愛して - Awazuni Aishite
09. 愛の旅路を - Ai no Tabiji o
10. 長崎は今日も雨だった - Nagasaki wa Kyō mo Ame Datta
11. わかれ雨 - Wakareame
12. 長崎詩情 - Nagasaki Shijō
Код: выделить всеОбщее
Полное имя                               : C:\Users\Pashketan\Desktop\Hidehiko Matsumoto & Yoshio Kimura  - Festival of Enka (1969)\LP1\01. Inochi Azukemasu.flac
Формат                                   : FLAC
Формат/Информация                        : Free Lossless Audio Codec
Размер файла                             : 97,7 Мбайт
Продолжительность                        : 2 м. 33 с.
Режим общего битрейта                    : Переменный
Общий поток                              : 5354 Кбит/сек
Альбом                                   : Festival of Enka
Трек                                     : Inochi Azukemasu
Трек/Положение                           : 1/12
Исполнитель                              : Hidehiko Matsumoto & Yoshio Kimura
Жанр                                     : Easy Listening
Дата записи                              : 1969
Обложка                                  : Yes
Тип обложки                              : Cover (front)
MIME-тип обложки                         : image/jpeg

Аудио
Формат                                   : FLAC
Формат/Информация                        : Free Lossless Audio Codec
Продолжительность                        : 2 м. 33 с.
Вид битрейта                             : Переменный
Битрейт                                  : 5352 Кбит/сек
Каналы                                   : 2 канала
Расположение каналов                     : Front: L R
Частота                                  : 192 КГц
Битовая глубина                          : 24 бит
Размер потока                            : 97,6 Мбайт (100%)
Библиотека кодирования                   : libFLAC 1.3.0 (UTC 2013-05-26)

Общее
Полное имя                               : C:\Users\Pashketan\Desktop\Hidehiko Matsumoto & Yoshio Kimura  - Festival of Enka (1969)\LP1\02. Keiko no Yume wa Yoru Hiraku.flac
Формат                                   : FLAC
Формат/Информация                        : Free Lossless Audio Codec
Размер файла                             : 105 Мбайт
Продолжительность                        : 2 м. 47 с.
Режим общего битрейта                    : Переменный
Общий поток                              : 5261 Кбит/сек
Альбом                                   : Festival of Enka
Трек                                     : Keiko no Yume wa Yoru Hiraku
Трек/Положение                           : 2/12
Исполнитель                              : Hidehiko Matsumoto & Yoshio Kimura
Жанр                                     : Easy Listening
Дата записи                              : 1969
Обложка                                  : Yes
Тип обложки                              : Cover (front)
MIME-тип обложки                         : image/jpeg

Аудио
Формат                                   : FLAC
Формат/Информация                        : Free Lossless Audio Codec
Продолжительность                        : 2 м. 47 с.
Вид битрейта                             : Переменный
Битрейт                                  : 5259 Кбит/сек
Каналы                                   : 2 канала
Расположение каналов                     : Front: L R
Частота                                  : 192 КГц
Битовая глубина                          : 24 бит
Размер потока                            : 105 Мбайт (100%)
Библиотека кодирования                   : libFLAC 1.3.0 (UTC 2013-05-26)

Общее
Полное имя                               : C:\Users\Pashketan\Desktop\Hidehiko Matsumoto & Yoshio Kimura  - Festival of Enka (1969)\LP1\03. Onna no Blues.flac
Формат                                   : FLAC
Формат/Информация                        : Free Lossless Audio Codec
Размер файла                             : 114 Мбайт
Продолжительность                        : 2 м. 58 с.
Режим общего битрейта                    : Переменный
Общий поток                              : 5391 Кбит/сек
Альбом                                   : Festival of Enka
Трек                                     : Onna no Blues
Трек/Положение                           : 3/12
Исполнитель                              : Hidehiko Matsumoto & Yoshio Kimura
Жанр                                     : Easy Listening
Дата записи                              : 1969
Обложка                                  : Yes
Тип обложки                              : Cover (front)
MIME-тип обложки                         : image/jpeg

Аудио
Формат                                   : FLAC
Формат/Информация                        : Free Lossless Audio Codec
Продолжительность                        : 2 м. 58 с.
Вид битрейта                             : Переменный
Битрейт                                  : 5390 Кбит/сек
Каналы                                   : 2 канала
Расположение каналов                     : Front: L R
Частота                                  : 192 КГц
Битовая глубина                          : 24 бит
Размер потока                            : 114 Мбайт (100%)
Библиотека кодирования                   : libFLAC 1.3.0 (UTC 2013-05-26)

Общее
Полное имя                               : C:\Users\Pashketan\Desktop\Hidehiko Matsumoto & Yoshio Kimura  - Festival of Enka (1969)\LP1\04. Shinjuku no Onna.flac
Формат                                   : FLAC
Формат/Информация                        : Free Lossless Audio Codec
Размер файла                             : 93,7 Мбайт
Продолжительность                        : 2 м. 26 с.
Режим общего битрейта                    : Переменный
Общий поток                              : 5383 Кбит/сек
Альбом                                   : Festival of Enka
Трек                                     : Shinjuku no Onna
Трек/Положение                           : 4/12
Исполнитель                              : Hidehiko Matsumoto & Yoshio Kimura
Жанр                                     : Easy Listening
Дата записи                              : 1969
Обложка                                  : Yes
Тип обложки                              : Cover (front)
MIME-тип обложки                         : image/jpeg

Аудио
Формат                                   : FLAC
Формат/Информация                        : Free Lossless Audio Codec
Продолжительность                        : 2 м. 26 с.
Вид битрейта                             : Переменный
Битрейт                                  : 5381 Кбит/сек
Каналы                                   : 2 канала
Расположение каналов                     : Front: L R
Частота                                  : 192 КГц
Битовая глубина                          : 24 бит
Размер потока                            : 93,7 Мбайт (100%)
Библиотека кодирования                   : libFLAC 1.3.0 (UTC 2013-05-26)

Общее
Полное имя                               : C:\Users\Pashketan\Desktop\Hidehiko Matsumoto & Yoshio Kimura  - Festival of Enka (1969)\LP1\05. Neongai no Onna.flac
Формат                                   : FLAC
Формат/Информация                        : Free Lossless Audio Codec
Размер файла                             : 105 Мбайт
Продолжительность                        : 2 м. 48 с.
Режим общего битрейта                    : Переменный
Общий поток                              : 5234 Кбит/сек
Альбом                                   : Festival of Enka
Трек                                     : Neongai no Onna
Трек/Положение                           : 5/12
Исполнитель                              : Hidehiko Matsumoto & Yoshio Kimura
Жанр                                     : Easy Listening
Дата записи                              : 1969
Обложка                                  : Yes
Тип обложки                              : Cover (front)
MIME-тип обложки                         : image/jpeg

Аудио
Формат                                   : FLAC
Формат/Информация                        : Free Lossless Audio Codec
Продолжительность                        : 2 м. 48 с.
Вид битрейта                             : Переменный
Битрейт                                  : 5233 Кбит/сек
Каналы                                   : 2 канала
Расположение каналов                     : Front: L R
Частота                                  : 192 КГц
Битовая глубина                          : 24 бит
Размер потока                            : 105 Мбайт (100%)
Библиотека кодирования                   : libFLAC 1.3.0 (UTC 2013-05-26)

Общее
Полное имя                               : C:\Users\Pashketan\Desktop\Hidehiko Matsumoto & Yoshio Kimura  - Festival of Enka (1969)\LP1\06. Inochi Girigiri.flac
Формат                                   : FLAC
Формат/Информация                        : Free Lossless Audio Codec
Размер файла                             : 101 Мбайт
Продолжительность                        : 2 м. 42 с.
Режим общего битрейта                    : Переменный
Общий поток                              : 5238 Кбит/сек
Альбом                                   : Festival of Enka
Трек                                     : Inochi Girigiri
Трек/Положение                           : 6/12
Исполнитель                              : Hidehiko Matsumoto & Yoshio Kimura
Жанр                                     : Easy Listening
Дата записи                              : 1969
Обложка                                  : Yes
Тип обложки                              : Cover (front)
MIME-тип обложки                         : image/jpeg

Аудио
Формат                                   : FLAC
Формат/Информация                        : Free Lossless Audio Codec
Продолжительность                        : 2 м. 42 с.
Вид битрейта                             : Переменный
Битрейт                                  : 5236 Кбит/сек
Каналы                                   : 2 канала
Расположение каналов                     : Front: L R
Частота                                  : 192 КГц
Битовая глубина                          : 24 бит
Размер потока                            : 101 Мбайт (100%)
Библиотека кодирования                   : libFLAC 1.3.0 (UTC 2013-05-26)

Общее
Полное имя                               : C:\Users\Pashketan\Desktop\Hidehiko Matsumoto & Yoshio Kimura  - Festival of Enka (1969)\LP1\07. Uwasa no Onna.flac
Формат                                   : FLAC
Формат/Информация                        : Free Lossless Audio Codec
Размер файла                             : 98,2 Мбайт
Продолжительность                        : 2 м. 32 с.
Режим общего битрейта                    : Переменный
Общий поток                              : 5417 Кбит/сек
Альбом                                   : Festival of Enka
Трек                                     : Uwasa no Onna
Трек/Положение                           : 7/12
Исполнитель                              : Hidehiko Matsumoto & Yoshio Kimura
Жанр                                     : Easy Listening
Дата записи                              : 1969
Обложка                                  : Yes
Тип обложки                              : Cover (front)
MIME-тип обложки                         : image/jpeg

Аудио
Формат                                   : FLAC
Формат/Информация                        : Free Lossless Audio Codec
Продолжительность                        : 2 м. 32 с.
Вид битрейта                             : Переменный
Битрейт                                  : 5415 Кбит/сек
Каналы                                   : 2 канала
Расположение каналов                     : Front: L R
Частота                                  : 192 КГц
Битовая глубина                          : 24 бит
Размер потока                            : 98,1 Мбайт (100%)
Библиотека кодирования                   : libFLAC 1.3.0 (UTC 2013-05-26)

Общее
Полное имя                               : C:\Users\Pashketan\Desktop\Hidehiko Matsumoto & Yoshio Kimura  - Festival of Enka (1969)\LP1\08. Awazuni Aishite.flac
Формат                                   : FLAC
Формат/Информация                        : Free Lossless Audio Codec
Размер файла                             : 114 Мбайт
Продолжительность                        : 2 м. 53 с.
Режим общего битрейта                    : Переменный
Общий поток                              : 5513 Кбит/сек
Альбом                                   : Festival of Enka
Трек                                     : Awazuni Aishite
Трек/Положение                           : 8/12
Исполнитель                              : Hidehiko Matsumoto & Yoshio Kimura
Жанр                                     : Easy Listening
Дата записи                              : 1969
Обложка                                  : Yes
Тип обложки                              : Cover (front)
MIME-тип обложки                         : image/jpeg

Аудио
Формат                                   : FLAC
Формат/Информация                        : Free Lossless Audio Codec
Продолжительность                        : 2 м. 53 с.
Вид битрейта                             : Переменный
Битрейт                                  : 5512 Кбит/сек
Каналы                                   : 2 канала
Расположение каналов                     : Front: L R
Частота                                  : 192 КГц
Битовая глубина                          : 24 бит
Размер потока                            : 114 Мбайт (100%)
Библиотека кодирования                   : libFLAC 1.3.0 (UTC 2013-05-26)

Общее
Полное имя                               : C:\Users\Pashketan\Desktop\Hidehiko Matsumoto & Yoshio Kimura  - Festival of Enka (1969)\LP1\09. Ai no Tabiji o.flac
Формат                                   : FLAC
Формат/Информация                        : Free Lossless Audio Codec
Размер файла                             : 121 Мбайт
Продолжительность                        : 3 м. 7 с.
Режим общего битрейта                    : Переменный
Общий поток                              : 5430 Кбит/сек
Альбом                                   : Festival of Enka
Трек                                     : Ai no Tabiji o
Трек/Положение                           : 9/12
Исполнитель                              : Hidehiko Matsumoto & Yoshio Kimura
Жанр                                     : Easy Listening
Дата записи                              : 1969
Обложка                                  : Yes
Тип обложки                              : Cover (front)
MIME-тип обложки                         : image/jpeg

Аудио
Формат                                   : FLAC
Формат/Информация                        : Free Lossless Audio Codec
Продолжительность                        : 3 м. 7 с.
Вид битрейта                             : Переменный
Битрейт                                  : 5429 Кбит/сек
Каналы                                   : 2 канала
Расположение каналов                     : Front: L R
Частота                                  : 192 КГц
Битовая глубина                          : 24 бит
Размер потока                            : 121 Мбайт (100%)
Библиотека кодирования                   : libFLAC 1.3.0 (UTC 2013-05-26)

Общее
Полное имя                               : C:\Users\Pashketan\Desktop\Hidehiko Matsumoto & Yoshio Kimura  - Festival of Enka (1969)\LP1\10. Nagasaki wa Kyo mo Ame Datta.flac
Формат                                   : FLAC
Формат/Информация                        : Free Lossless Audio Codec
Размер файла                             : 103 Мбайт
Продолжительность                        : 2 м. 38 с.
Режим общего битрейта                    : Переменный
Общий поток                              : 5473 Кбит/сек
Альбом                                   : Festival of Enka
Трек                                     : Nagasaki wa Kyo mo Ame Datta
Трек/Положение                           : 10/12
Исполнитель                              : Hidehiko Matsumoto & Yoshio Kimura
Жанр                                     : Easy Listening
Дата записи                              : 1969
Обложка                                  : Yes
Тип обложки                              : Cover (front)
MIME-тип обложки                         : image/jpeg

Аудио
Формат                                   : FLAC
Формат/Информация                        : Free Lossless Audio Codec
Продолжительность                        : 2 м. 38 с.
Вид битрейта                             : Переменный
Битрейт                                  : 5471 Кбит/сек
Каналы                                   : 2 канала
Расположение каналов                     : Front: L R
Частота                                  : 192 КГц
Битовая глубина                          : 24 бит
Размер потока                            : 103 Мбайт (100%)
Библиотека кодирования                   : libFLAC 1.3.0 (UTC 2013-05-26)

Общее
Полное имя                               : C:\Users\Pashketan\Desktop\Hidehiko Matsumoto & Yoshio Kimura  - Festival of Enka (1969)\LP1\11. Wakareame.flac
Формат                                   : FLAC
Формат/Информация                        : Free Lossless Audio Codec
Размер файла                             : 120 Мбайт
Продолжительность                        : 3 м. 19 с.
Режим общего битрейта                    : Переменный
Общий поток                              : 5073 Кбит/сек
Альбом                                   : Festival of Enka
Трек                                     : Wakareame
Трек/Положение                           : 11/12
Исполнитель                              : Hidehiko Matsumoto & Yoshio Kimura
Жанр                                     : Easy Listening
Дата записи                              : 1969
Обложка                                  : Yes
Тип обложки                              : Cover (front)
MIME-тип обложки                         : image/jpeg

Аудио
Формат                                   : FLAC
Формат/Информация                        : Free Lossless Audio Codec
Продолжительность                        : 3 м. 19 с.
Вид битрейта                             : Переменный
Битрейт                                  : 5072 Кбит/сек
Каналы                                   : 2 канала
Расположение каналов                     : Front: L R
Частота                                  : 192 КГц
Битовая глубина                          : 24 бит
Размер потока                            : 120 Мбайт (100%)
Библиотека кодирования                   : libFLAC 1.3.0 (UTC 2013-05-26)

Общее
Полное имя                               : C:\Users\Pashketan\Desktop\Hidehiko Matsumoto & Yoshio Kimura  - Festival of Enka (1969)\LP1\12. Nagasaki Shijo.flac
Формат                                   : FLAC
Формат/Информация                        : Free Lossless Audio Codec
Размер файла                             : 104 Мбайт
Продолжительность                        : 2 м. 45 с.
Режим общего битрейта                    : Переменный
Общий поток                              : 5284 Кбит/сек
Альбом                                   : Festival of Enka
Трек                                     : Nagasaki Shijo
Трек/Положение                           : 12/12
Исполнитель                              : Hidehiko Matsumoto & Yoshio Kimura
Жанр                                     : Easy Listening
Дата записи                              : 1969
Обложка                                  : Yes
Тип обложки                              : Cover (front)
MIME-тип обложки                         : image/jpeg

Аудио
Формат                                   : FLAC
Формат/Информация                        : Free Lossless Audio Codec
Продолжительность                        : 2 м. 45 с.
Вид битрейта                             : Переменный
Битрейт                                  : 5282 Кбит/сек
Каналы                                   : 2 канала
Расположение каналов                     : Front: L R
Частота                                  : 192 КГц
Битовая глубина                          : 24 бит
Размер потока                            : 104 Мбайт (100%)
Библиотека кодирования                   : libFLAC 1.3.0 (UTC 2013-05-26)
Код: выделить всеfoobar2000 1.3.9 / Замер динамического диапазона (DR) 1.1.1
Дата отчёта:    2018-01-10 08:00:39

--------------------------------------------------------------------------------
Анализ:   Hidehiko Matsumoto & Yoshio Kimura / Festival of Enka
--------------------------------------------------------------------------------

DR         Пики         RMS           Продолжительность трека
--------------------------------------------------------------------------------
DR11      -3.55 дБ   -17.24 дБ      2:33 1/12-Inochi Azukemasu
DR11      -3.11 дБ   -17.19 дБ      2:47 2/12-Keiko no Yume wa Yoru Hiraku
DR12      -3.65 дБ   -18.09 дБ      2:58 3/12-Onna no Blues
DR12      -3.04 дБ   -17.28 дБ      2:26 4/12-Shinjuku no Onna
DR12       0.00 дБ   -17.92 дБ      2:48 5/12-Neongai no Onna
DR12      -3.22 дБ   -16.98 дБ      2:42 6/12-Inochi Girigiri
DR12      -2.21 дБ   -16.82 дБ      2:32 7/12-Uwasa no Onna
DR12      -3.08 дБ   -17.16 дБ      2:53 8/12-Awazuni Aishite
DR13      -2.18 дБ   -17.73 дБ      3:07 9/12-Ai no Tabiji o
DR13      -1.89 дБ   -17.70 дБ      2:38 10/12-Nagasaki wa Kyo mo Ame Datta
DR13      -4.12 дБ   -19.35 дБ      3:19 11/12-Wakareame
DR11      -3.68 дБ   -17.33 дБ      2:45 12/12-Nagasaki Shijo
--------------------------------------------------------------------------------

Количество треков:  12
Реальные значения DR:  DR12

Частота:      192000 Гц
Каналов:      2
Разрядность:     24
Битрейт:      5282 кбит/с
Кодек:      FLAC
================================================================================
13. 波止場女のブルース - Hatoba Onna no Blues
14. 恋ひとすじ - Koi Hitosuji
15. おんな - Onna
16. 花と蝶 - Hana to Chō
17. 命かれても - Inochi Karetemo
18. 港町ブルース - Minatomachi Blues
19. 夜の瀬戸内 - Yoru no Setouchi
20. 国際線待合室 - Kokusaisen Machiaishitsu
21. 池袋の夜 - Ikebukuro no Yoru
22. 長崎ブル一ス - Nagasaki Blues
23. 伊勢佐木町ブルース - Isezakichō Blues
24. 恍惚のブルース - Kōkotsu no Blues
Код: выделить все
foobar2000 1.3.9 / Замер динамического диапазона (DR) 1.1.1
Дата отчёта:    2018-01-09 18:27:14

--------------------------------------------------------------------------------
Анализ:   Hidehiko Matsumoto & Yoshio Kimura / Festival of Enka
--------------------------------------------------------------------------------

DR         Пики         RMS           Продолжительность трека
--------------------------------------------------------------------------------
DR12      -3.53 дБ   -18.21 дБ      2:58 1-Hatoba Onna no Blues
DR11      -4.46 дБ   -18.75 дБ      2:48 2-Koi Hitosuji
DR12      -3.65 дБ   -18.62 дБ      2:37 3-Onna
DR11      -3.78 дБ   -17.27 дБ      2:58 4-Hana to Cho
DR11      -5.39 дБ   -18.63 дБ      3:06 5-Inochi Karetemo
DR13      -3.70 дБ   -18.32 дБ      2:49 6-Minatomachi Blues
DR12      -2.62 дБ   -16.91 дБ      2:16 7-Yoru no Setouchi
DR11      -2.83 дБ   -16.67 дБ      2:34 8-Kokusaisen Machiaishitsu
DR12       0.00 дБ   -16.76 дБ      2:27 9-Ikebukuro no Yoru
DR12      -3.01 дБ   -16.41 дБ      2:18 10-Nagasaki Blues
DR11      -2.41 дБ   -15.79 дБ      2:16 11-Isezakicho Blues
DR11      -2.66 дБ   -16.82 дБ      2:45 12-Kokotsu no Blues
--------------------------------------------------------------------------------

Количество треков:  12
Реальные значения DR:  DR11

Частота:      192000 Гц
Каналов:      2
Разрядность:     24
Битрейт:      5233 кбит/с
Кодек:      FLAC
================================================================================

Код: выделить всеОбщее
Полное имя                               : C:\Users\Pashketan\Desktop\Hidehiko Matsumoto & Yoshio Kimura  - Festival of Enka (1969)\LP2\01. Hatoba Onna no Blues.flac
Формат                                   : FLAC
Формат/Информация                        : Free Lossless Audio Codec
Размер файла                             : 116 Мбайт
Продолжительность                        : 2 м. 58 с.
Режим общего битрейта                    : Переменный
Общий поток                              : 5479 Кбит/сек
Альбом                                   : Festival of Enka
Трек                                     : Hatoba Onna no Blues
Трек/Положение                           : 1/12
Исполнитель                              : Hidehiko Matsumoto & Yoshio Kimura
Жанр                                     : Easy Listening
Дата записи                              : 1969
Обложка                                  : Yes
Тип обложки                              : Cover (front)
MIME-тип обложки                         : image/jpeg

Аудио
Формат                                   : FLAC
Формат/Информация                        : Free Lossless Audio Codec
Продолжительность                        : 2 м. 58 с.
Вид битрейта                             : Переменный
Битрейт                                  : 5477 Кбит/сек
Каналы                                   : 2 канала
Расположение каналов                     : Front: L R
Частота                                  : 192 КГц
Битовая глубина                          : 24 бит
Размер потока                            : 116 Мбайт (100%)
Библиотека кодирования                   : libFLAC 1.3.0 (UTC 2013-05-26)

Общее
Полное имя                               : C:\Users\Pashketan\Desktop\Hidehiko Matsumoto & Yoshio Kimura  - Festival of Enka (1969)\LP2\02. Koi Hitosuji.flac
Формат                                   : FLAC
Формат/Информация                        : Free Lossless Audio Codec
Размер файла                             : 109 Мбайт
Продолжительность                        : 2 м. 48 с.
Режим общего битрейта                    : Переменный
Общий поток                              : 5458 Кбит/сек
Альбом                                   : Festival of Enka
Трек                                     : Koi Hitosuji
Трек/Положение                           : 2/12
Исполнитель                              : Hidehiko Matsumoto & Yoshio Kimura
Жанр                                     : Easy Listening
Дата записи                              : 1969
Обложка                                  : Yes
Тип обложки                              : Cover (front)
MIME-тип обложки                         : image/jpeg

Аудио
Формат                                   : FLAC
Формат/Информация                        : Free Lossless Audio Codec
Продолжительность                        : 2 м. 48 с.
Вид битрейта                             : Переменный
Битрейт                                  : 5456 Кбит/сек
Каналы                                   : 2 канала
Расположение каналов                     : Front: L R
Частота                                  : 192 КГц
Битовая глубина                          : 24 бит
Размер потока                            : 109 Мбайт (100%)
Библиотека кодирования                   : libFLAC 1.3.0 (UTC 2013-05-26)

Общее
Полное имя                               : C:\Users\Pashketan\Desktop\Hidehiko Matsumoto & Yoshio Kimura  - Festival of Enka (1969)\LP2\03. Onna.flac
Формат                                   : FLAC
Формат/Информация                        : Free Lossless Audio Codec
Размер файла                             : 103 Мбайт
Продолжительность                        : 2 м. 37 с.
Режим общего битрейта                    : Переменный
Общий поток                              : 5492 Кбит/сек
Альбом                                   : Festival of Enka
Трек                                     : Onna
Трек/Положение                           : 3/12
Исполнитель                              : Hidehiko Matsumoto & Yoshio Kimura
Жанр                                     : Easy Listening
Дата записи                              : 1969
Обложка                                  : Yes
Тип обложки                              : Cover (front)
MIME-тип обложки                         : image/jpeg

Аудио
Формат                                   : FLAC
Формат/Информация                        : Free Lossless Audio Codec
Продолжительность                        : 2 м. 37 с.
Вид битрейта                             : Переменный
Битрейт                                  : 5490 Кбит/сек
Каналы                                   : 2 канала
Расположение каналов                     : Front: L R
Частота                                  : 192 КГц
Битовая глубина                          : 24 бит
Размер потока                            : 103 Мбайт (100%)
Библиотека кодирования                   : libFLAC 1.3.0 (UTC 2013-05-26)

Общее
Полное имя                               : C:\Users\Pashketan\Desktop\Hidehiko Matsumoto & Yoshio Kimura  - Festival of Enka (1969)\LP2\04. Hana to Cho.flac
Формат                                   : FLAC
Формат/Информация                        : Free Lossless Audio Codec
Размер файла                             : 114 Мбайт
Продолжительность                        : 2 м. 58 с.
Режим общего битрейта                    : Переменный
Общий поток                              : 5386 Кбит/сек
Альбом                                   : Festival of Enka
Трек                                     : Hana to Cho
Трек/Положение                           : 4/12
Исполнитель                              : Hidehiko Matsumoto & Yoshio Kimura
Жанр                                     : Easy Listening
Дата записи                              : 1969
Обложка                                  : Yes
Тип обложки                              : Cover (front)
MIME-тип обложки                         : image/jpeg

Аудио
Формат                                   : FLAC
Формат/Информация                        : Free Lossless Audio Codec
Продолжительность                        : 2 м. 58 с.
Вид битрейта                             : Переменный
Битрейт                                  : 5385 Кбит/сек
Каналы                                   : 2 канала
Расположение каналов                     : Front: L R
Частота                                  : 192 КГц
Битовая глубина                          : 24 бит
Размер потока                            : 114 Мбайт (100%)
Библиотека кодирования                   : libFLAC 1.3.0 (UTC 2013-05-26)

Общее
Полное имя                               : C:\Users\Pashketan\Desktop\Hidehiko Matsumoto & Yoshio Kimura  - Festival of Enka (1969)\LP2\05. Inochi Karetemo.flac
Формат                                   : FLAC
Формат/Информация                        : Free Lossless Audio Codec
Размер файла                             : 117 Мбайт
Продолжительность                        : 3 м. 6 с.
Режим общего битрейта                    : Переменный
Общий поток                              : 5263 Кбит/сек
Альбом                                   : Festival of Enka
Трек                                     : Inochi Karetemo
Трек/Положение                           : 5/12
Исполнитель                              : Hidehiko Matsumoto & Yoshio Kimura
Жанр                                     : Easy Listening
Дата записи                              : 1969
Обложка                                  : Yes
Тип обложки                              : Cover (front)
MIME-тип обложки                         : image/jpeg

Аудио
Формат                                   : FLAC
Формат/Информация                        : Free Lossless Audio Codec
Продолжительность                        : 3 м. 6 с.
Вид битрейта                             : Переменный
Битрейт                                  : 5262 Кбит/сек
Каналы                                   : 2 канала
Расположение каналов                     : Front: L R
Частота                                  : 192 КГц
Битовая глубина                          : 24 бит
Размер потока                            : 117 Мбайт (100%)
Библиотека кодирования                   : libFLAC 1.3.0 (UTC 2013-05-26)

Общее
Полное имя                               : C:\Users\Pashketan\Desktop\Hidehiko Matsumoto & Yoshio Kimura  - Festival of Enka (1969)\LP2\06. Minatomachi Blues.flac
Формат                                   : FLAC
Формат/Информация                        : Free Lossless Audio Codec
Размер файла                             : 110 Мбайт
Продолжительность                        : 2 м. 49 с.
Режим общего битрейта                    : Переменный
Общий поток                              : 5460 Кбит/сек
Альбом                                   : Festival of Enka
Трек                                     : Minatomachi Blues
Трек/Положение                           : 6/12
Исполнитель                              : Hidehiko Matsumoto & Yoshio Kimura
Жанр                                     : Easy Listening
Дата записи                              : 1969
Обложка                                  : Yes
Тип обложки                              : Cover (front)
MIME-тип обложки                         : image/jpeg

Аудио
Формат                                   : FLAC
Формат/Информация                        : Free Lossless Audio Codec
Продолжительность                        : 2 м. 49 с.
Вид битрейта                             : Переменный
Битрейт                                  : 5459 Кбит/сек
Каналы                                   : 2 канала
Расположение каналов                     : Front: L R
Частота                                  : 192 КГц
Битовая глубина                          : 24 бит
Размер потока                            : 110 Мбайт (100%)
Библиотека кодирования                   : libFLAC 1.3.0 (UTC 2013-05-26)

Общее
Полное имя                               : C:\Users\Pashketan\Desktop\Hidehiko Matsumoto & Yoshio Kimura  - Festival of Enka (1969)\LP2\07. Yoru no Setouchi.flac
Формат                                   : FLAC
Формат/Информация                        : Free Lossless Audio Codec
Размер файла                             : 89,3 Мбайт
Продолжительность                        : 2 м. 16 с.
Режим общего битрейта                    : Переменный
Общий поток                              : 5507 Кбит/сек
Альбом                                   : Festival of Enka
Трек                                     : Yoru no Setouchi
Трек/Положение                           : 7/12
Исполнитель                              : Hidehiko Matsumoto & Yoshio Kimura
Жанр                                     : Easy Listening
Дата записи                              : 1969
Обложка                                  : Yes
Тип обложки                              : Cover (front)
MIME-тип обложки                         : image/jpeg

Аудио
Формат                                   : FLAC
Формат/Информация                        : Free Lossless Audio Codec
Продолжительность                        : 2 м. 16 с.
Вид битрейта                             : Переменный
Битрейт                                  : 5505 Кбит/сек
Каналы                                   : 2 канала
Расположение каналов                     : Front: L R
Частота                                  : 192 КГц
Битовая глубина                          : 24 бит
Размер потока                            : 89,2 Мбайт (100%)
Библиотека кодирования                   : libFLAC 1.3.0 (UTC 2013-05-26)

Общее
Полное имя                               : C:\Users\Pashketan\Desktop\Hidehiko Matsumoto & Yoshio Kimura  - Festival of Enka (1969)\LP2\08. Kokusaisen Machiaishitsu.flac
Формат                                   : FLAC
Формат/Информация                        : Free Lossless Audio Codec
Размер файла                             : 101 Мбайт
Продолжительность                        : 2 м. 34 с.
Режим общего битрейта                    : Переменный
Общий поток                              : 5524 Кбит/сек
Альбом                                   : Festival of Enka
Трек                                     : Kokusaisen Machiaishitsu
Трек/Положение                           : 8/12
Исполнитель                              : Hidehiko Matsumoto & Yoshio Kimura
Жанр                                     : Easy Listening
Дата записи                              : 1969
Обложка                                  : Yes
Тип обложки                              : Cover (front)
MIME-тип обложки                         : image/jpeg

Аудио
Формат                                   : FLAC
Формат/Информация                        : Free Lossless Audio Codec
Продолжительность                        : 2 м. 34 с.
Вид битрейта                             : Переменный
Битрейт                                  : 5522 Кбит/сек
Каналы                                   : 2 канала
Расположение каналов                     : Front: L R
Частота                                  : 192 КГц
Битовая глубина                          : 24 бит
Размер потока                            : 101 Мбайт (100%)
Библиотека кодирования                   : libFLAC 1.3.0 (UTC 2013-05-26)

Общее
Полное имя                               : C:\Users\Pashketan\Desktop\Hidehiko Matsumoto & Yoshio Kimura  - Festival of Enka (1969)\LP2\09. Ikebukuro no Yoru.flac
Формат                                   : FLAC
Формат/Информация                        : Free Lossless Audio Codec
Размер файла                             : 94,4 Мбайт
Продолжительность                        : 2 м. 27 с.
Режим общего битрейта                    : Переменный
Общий поток                              : 5385 Кбит/сек
Альбом                                   : Festival of Enka
Трек                                     : Ikebukuro no Yoru
Трек/Положение                           : 9/12
Исполнитель                              : Hidehiko Matsumoto & Yoshio Kimura
Жанр                                     : Easy Listening
Дата записи                              : 1969
Обложка                                  : Yes
Тип обложки                              : Cover (front)
MIME-тип обложки                         : image/jpeg

Аудио
Формат                                   : FLAC
Формат/Информация                        : Free Lossless Audio Codec
Продолжительность                        : 2 м. 27 с.
Вид битрейта                             : Переменный
Битрейт                                  : 5383 Кбит/сек
Каналы                                   : 2 канала
Расположение каналов                     : Front: L R
Частота                                  : 192 КГц
Битовая глубина                          : 24 бит
Размер потока                            : 94,3 Мбайт (100%)
Библиотека кодирования                   : libFLAC 1.3.0 (UTC 2013-05-26)

Общее
Полное имя                               : C:\Users\Pashketan\Desktop\Hidehiko Matsumoto & Yoshio Kimura  - Festival of Enka (1969)\LP2\10. Nagasaki Blues.flac
Формат                                   : FLAC
Формат/Информация                        : Free Lossless Audio Codec
Размер файла                             : 88,6 Мбайт
Продолжительность                        : 2 м. 18 с.
Режим общего битрейта                    : Переменный
Общий поток                              : 5386 Кбит/сек
Альбом                                   : Festival of Enka
Трек                                     : Nagasaki Blues
Трек/Положение                           : 10/12
Исполнитель                              : Hidehiko Matsumoto & Yoshio Kimura
Жанр                                     : Easy Listening
Дата записи                              : 1969
Обложка                                  : Yes
Тип обложки                              : Cover (front)
MIME-тип обложки                         : image/jpeg

Аудио
Формат                                   : FLAC
Формат/Информация                        : Free Lossless Audio Codec
Продолжительность                        : 2 м. 18 с.
Вид битрейта                             : Переменный
Битрейт                                  : 5384 Кбит/сек
Каналы                                   : 2 канала
Расположение каналов                     : Front: L R
Частота                                  : 192 КГц
Битовая глубина                          : 24 бит
Размер потока                            : 88,6 Мбайт (100%)
Библиотека кодирования                   : libFLAC 1.3.0 (UTC 2013-05-26)

Общее
Полное имя                               : C:\Users\Pashketan\Desktop\Hidehiko Matsumoto & Yoshio Kimura  - Festival of Enka (1969)\LP2\11. Isezakicho Blues.flac
Формат                                   : FLAC
Формат/Информация                        : Free Lossless Audio Codec
Размер файла                             : 88,9 Мбайт
Продолжительность                        : 2 м. 16 с.
Режим общего битрейта                    : Переменный
Общий поток                              : 5482 Кбит/сек
Альбом                                   : Festival of Enka
Трек                                     : Isezakicho Blues
Трек/Положение                           : 11/12
Исполнитель                              : Hidehiko Matsumoto & Yoshio Kimura
Жанр                                     : Easy Listening
Дата записи                              : 1969
Обложка                                  : Yes
Тип обложки                              : Cover (front)
MIME-тип обложки                         : image/jpeg

Аудио
Формат                                   : FLAC
Формат/Информация                        : Free Lossless Audio Codec
Продолжительность                        : 2 м. 16 с.
Вид битрейта                             : Переменный
Битрейт                                  : 5480 Кбит/сек
Каналы                                   : 2 канала
Расположение каналов                     : Front: L R
Частота                                  : 192 КГц
Битовая глубина                          : 24 бит
Размер потока                            : 88,8 Мбайт (100%)
Библиотека кодирования                   : libFLAC 1.3.0 (UTC 2013-05-26)

Общее
Полное имя                               : C:\Users\Pashketan\Desktop\Hidehiko Matsumoto & Yoshio Kimura  - Festival of Enka (1969)\LP2\12. Kokotsu no Blues.flac
Формат                                   : FLAC
Формат/Информация                        : Free Lossless Audio Codec
Размер файла                             : 103 Мбайт
Продолжительность                        : 2 м. 45 с.
Режим общего битрейта                    : Переменный
Общий поток                              : 5235 Кбит/сек
Альбом                                   : Festival of Enka
Трек                                     : Kokotsu no Blues
Трек/Положение                           : 12/12
Исполнитель                              : Hidehiko Matsumoto & Yoshio Kimura
Жанр                                     : Easy Listening
Дата записи                              : 1969
Обложка                                  : Yes
Тип обложки                              : Cover (front)
MIME-тип обложки                         : image/jpeg

Аудио
Формат                                   : FLAC
Формат/Информация                        : Free Lossless Audio Codec
Продолжительность                        : 2 м. 45 с.
Вид битрейта                             : Переменный
Битрейт                                  : 5233 Кбит/сек
Каналы                                   : 2 канала
Расположение каналов                     : Front: L R
Частота                                  : 192 КГц
Битовая глубина                          : 24 бит
Размер потока                            : 103 Мбайт (100%)
Библиотека кодирования                   : libFLAC 1.3.0 (UTC 2013-05-26)
Не забывайте говорить Спасибо. Не уходите с раздачи!   
Торрент: Зарегистрирован [21 янв 2018, 16:38] Для скачивания .torrent
необходима регистрация
Или скачать с помощью
MediaGet
Статус:
Проверен
 
.torrent скачан: 4 раз
Хэш: 03dc6852b4513188cddbbd184ede37e6e8045831
Размер: 2.49 ГБ (2 670 788 146 байт)
   Стать Автором раздачи
   
Цитата

Вернуться в Vinyl-Rip и Hand-Made

Кто сейчас на конференции

Сейчас эту тему просматривают: нет зарегистрированных пользователей и гости: 1