Ева Луна / Eva Luna / Серии: 51-110 из 110 (Тито Рохас, Адриана Барраза) [2010, Венесуэла-США, Теленовелла, TVRip]

 Статистика раздачи 
Размер: 33.56 ГБ   |  Зарегистрирован: 11 мар 2012, 12:25   |   .torrent скачан: 0 раз
Сидеров: 3  [ 0 байт/сек ]     Личеров: 1  [ 0 байт/сек ]  
  
Аватара пользователя
Главный редактор
Главный редактор
 
Раздал: 53.87 ТБ
Скачал: 2.62 ТБ
Ратио: 20.995
Сообщения: 190107
Стаж: 8 лет 1 месяц 24 дня
Откуда: Санкт-Петербург

Ева Луна / Eva Luna
Год выпуска: 2010
Страна: Венесуэла-США
Производство: Venevision Int
Жанр: Теленовелла
Продолжительность: ~00:40
Перевод: любительский двухголосый закадровый
Субтитры: нет
Режиссёр: Тито Рохас, Адриана Барраза
В ролях: Бланка Сото, Гай Экер, Сусана Досамантес, Хулиан Хил, Ванесса Вийела, Хорхе Лават, Алехандро Чабан и др.
Описание: Ева Гонсалес - девушка необыкновенной красоты, молодая и работящая. Как и многие эмигранты, Ева с отцом и младшей сестрой приезжают в Калифорнию в поисках лучшей жизни. Однако она не знает что, прежде чем найти свое счастье, ей придется перенести ужасную потерю. Девушка влюбляется в Даниэля Вильянуэва, успешного и состоятельного человека, который после смерти жены сам воспитывает маленькую дочь. Сначала отношения Даниэля и Евы балансируют между страстью и ненавистью, но со временем им становится все тяжелее сопротивляться взаимному притяжению. Лучший друг Даниэля, Леонардо по прозвищу «Казанова», желает во что бы то ни стало покорить Еву, и это создает напряженное соперничество между вчерашними друзьями. Кроме того, Виктория, невеста Даниэля и сестра Леонардо, и Марсела, его начальница и будущая теща, также сделают все, чтобы разлучить Даниэля и Еву.
Отец Евы погибает в аварии, и стечение обстоятельств заставляет ее думать, что именно Даниэль был за рулем автомобиля. Опустошенная потерей, она клянется отомстить за смерть отца. Леонардо всячески старается отдалить Еву от Даниэля, косвенно подтверждая ее подозрения. Тем временем Даниэль не понимает, почему Ева его ненавидит. Думая, что она только играла с его чувствами, он принимает решение жениться на Виктории. После серии неожиданных событий Ева получает в наследство рекламное агентство, где работает Даниэль, и начальницей возвращается в его жизнь.
Над сериалом работают:
Озвучивание и сведение: Amway и Elma
За работу с видео, СПАСИБО Tonike

Используется перевод:
зaпиcь c изpаильскoго кaнaла Vivа релиз ABRAKA
Сэмпл:Все альтернативные раздачи сериала
Все предыдущие раздачи сериала
Качество: TVRip
Формат: AVI
Видео кодек: XviD
Аудио кодек: MP3
Видео: XVID 640х480 29.970 fps 1 301 Kbps
Аудио: MP3 48.0 KHz 2 channels 128 Kbps
Аудио 2: MP3 48.0 KHz 2 channels 128 Kbps
General
Complete name : H:\Сериалы\Ева Луна\Ева 51-100\51_eva.avi
Format : AVI
Format/Info : Audio Video Interleave
File size : 485 MiB
Duration : 43mn 15s
Overall bit rate : 1 567 Kbps
Writing application : VirtualDubModRus 1.5.10.2 (build 2540/release)
Writing library : VirtualDubMod build 2540/release
Video
ID : 0
Format : MPEG-4 Visual
Format profile : Advanced Simple@L5
Format settings, BVOP : Yes
Format settings, QPel : No
Format settings, GMC : No warppoints
Format settings, Matrix : Default (H.263)
Muxing mode : Packed bitstream
Codec ID : XVID
Codec ID/Hint : XviD
Duration : 43mn 15s
Bit rate : 1 294 Kbps
Width : 640 pixels
Height : 480 pixels
Display aspect ratio : 4:3
Frame rate : 29.970 fps
Color space : YUV
Chroma subsampling : 4:2:0
Bit depth : 8 bits
Scan type : Progressive
Bits/(Pixel*Frame) : 0.141
Stream size : 400 MiB (83%)
Writing library : XviD 63
Audio #1
ID : 1
Format : MPEG Audio
Format version : Version 1
Format profile : Layer 3
Mode : Joint stereo
Mode extension : MS Stereo
Codec ID : 55
Codec ID/Hint : MP3
Duration : 43mn 15s
Bit rate mode : Constant
Bit rate : 128 Kbps
Channel(s) : 2 channels
Sampling rate : 48.0 KHz
Stream size : 39.6 MiB (8%)
Alignment : Aligned on interleaves
Interleave, duration : 33 ms (1.00 video frame)
Interleave, preload duration : 504 ms
Audio #2
ID : 2
Format : MPEG Audio
Format version : Version 1
Format profile : Layer 3
Mode : Joint stereo
Mode extension : MS Stereo
Codec ID : 55
Codec ID/Hint : MP3
Duration : 43mn 15s
Bit rate mode : Constant
Bit rate : 128 Kbps
Channel(s) : 2 channels
Sampling rate : 48.0 KHz
Stream size : 39.6 MiB (8%)
Alignment : Split accross interleaves
Interleave, duration : 33 ms (1.00 video frame)
Interleave, preload duration : 500 ms
Writing library : LAME3.98.2
Не забывайте говорить Спасибо. Не уходите с раздачи!   
Торрент: Зарегистрирован [11 мар 2012, 12:25] Для скачивания .torrent
необходима регистрация
Или скачать с помощью
MediaGet
Статус:
Проверен
 
.torrent скачан: 0 раз
Хэш: 2f293f2c881d304d32af9559031b1a1cae98bc37
Размер: 33.56 ГБ (36 039 362 136 байт)
   Стать Автором раздачи
   
Цитата
  • Похожие торренты
    Ответы
    Просмотры
    Последнее сообщение

Вернуться в Сериалы Венесуэлы

Кто сейчас на конференции

Сейчас эту тему просматривают: нет зарегистрированных пользователей и гости: 1