Близость / Closer (Майк Николс / Mike Nichols) [2004, драма, мелодрама, BDRip 720p] Dub + MVO (R5) + 3 x DVO + AVO (Немахов) + Original + Subs (Rus, Eng)

 Статистика раздачи 
Размер: 9.14 ГБ   |  Зарегистрирован: 11 июн 2013, 01:23   |   .torrent скачан: 0 раз
Сидеров: 8  [ 0 байт/сек ]     Личеров: 2  [ 0 байт/сек ]  
  
Аватара пользователя
Администратор
Администратор
Автор темы
Раздал: 24.47 ТБ
Скачал: 388.83 ГБ
Ратио: 145.334
Сообщения: 5358
Стаж: 6 лет 11 месяцев 11 дней
Откуда: Lithuania

Близость / Closer


Русское название: Близость
Оригинальное название: Closer
Год выпуска: 2004
Выпущено: США, Великобритания
Режиссер: Майк Николс / Mike Nichols
В ролях: Джулия Робертс, Джуд Лоу, Натали Портман, Клайв Оуэн, Ник Хоббс, Колин Стинтон, Бенхэм Стив, Элизабет Бауэр, Рэй Донн, Дэниэл Дресне
Роли дублировали: Ирина Мазуркевич, Максим Сергеев, Анна Геллер
Продолжительность: 01:43:51
Продюсер: Кэри Брокау, Джон Калли, Майк Николс
Сценарий: Патрик Марбер
Премьера в мире: 3 декабря 2004
Жанр: драма, мелодрама
Перевод: Профессиональный (полное дублирование)
+ Профессиональный (многоголосый, закадровый) R5
+ Профессиональный (двухголосый, закадровый) 3 разных варианта
+ Авторский одноголосый Ю.Немахова
+ Оригинальная звуковая дорожка
+ Комментарии на языке оригинала
Cубтитры: Русские, English

Описание: Человек страдает, когда не получает того, чего хочет. Но еще больше он страдает, когда не может понять, чего он хочет. .. Молодой писатель Дэн влюблен в стриптизершу Элис, хотя не прочь закрутить роман с модным фотографом Анной. В то же время мрачный мачо Ларри становится бойфрендом Анны, однако встречается и с Элис. И никто из них не способен разобраться в своих чувствах и окончательно определиться, с кем же он желает остаться. Отношения внутри любовного четырехугольника постепенно накаляются, бросая героев в пучину страстей и неумолимо приближая их к неожиданной, парадоксальной развязке

Рейтинг MPAA: R - Лицам до 17 лет обязательно присутствие взрослого
Рейтинг IMDB:
Рейтинг Kinopoisk:

Контейнер: MKV
Качество HD: BDRip 720p
Формат аудио: AC3, DTS
Формат видео: AVC
Видео: 1280x694 at 23.976 fps, [email protected], crf, ~7803 kbps avg
Аудио: Russian: 48 kHz, AC3, 3/2 (L,C,R,l,r) + LFE ch, ~640.00 kbps avg |Дубляж, Blu-ray CEE|
Аудио 2: Russian: 48 kHz, AC3, 3/2 (L,C,R,l,r) + LFE ch, ~640.00 kbps avg |Многоголосый закадровый, R5|
Аудио 3: Russian: 48 kHz, AC3, 3/2 (L,C,R,l,r) + LFE ch, ~640.00 kbps avg |Двухголосый закадровый, Tycoon-studio|
Аудио 4: Russian: 48 kHz, AC3, 3/2 (L,C,R,l,r) + LFE ch, ~640.00 kbps avg |Двухголосый закадровый|
Аудио 5: Russian: 48 kHz, DTS, 3/2 (L,C,R,l,r) + LFE ch, ~768.00 kbps avg |Двухголосый закадровый|
Аудио 6: Russian: 48 kHz, AC3, 3/2 (L,C,R,l,r) + LFE ch, ~640.00 kbps avg |Одноголосый закадровый, Ю. Немахов|
Аудио 7: English: 48 kHz, AC3, 3/2 (L,C,R,l,r) + LFE ch, ~640.00 kbps avg
Аудио 8: English: 48 kHz, AC3, 2/0 (L,R) ch, ~192.00 kbps avg |Commentary|



Код: Выделить всё
General
Unique ID : 177228842878064845271918923727963880734 (0x85550896C8F5F99899344A4B85F2FD1E)
Complete name : G:\Video\Movie\Closer.2004.720p.BluRay.6xRus.Eng.HDCLUB-Skazhutin.mkv
Format : Matroska
Format version : Version 2
File size : 9.14 GiB
Duration : 1h 43mn
Overall bit rate : 12.6 Mbps
Movie name : Closer (2004) - Release for HDCLUB by Skazhutin
Encoded date : UTC 2012-04-30 10:04:05
Writing application : mkvmerge v5.5.0 ('Healer') built on Apr 6 2012 21:43:24
Writing library : libebml v1.2.3 + libmatroska v1.3.0
Attachment : Yes / Yes
Video
ID : 1
Format : AVC
Format/Info : Advanced Video Codec
Format profile : [email protected]
Format settings, CABAC : Yes
Format settings, ReFrames : 9 frames
Codec ID : V_MPEG4/ISO/AVC
Duration : 1h 43mn
Bit rate : 7 557 Kbps
Width : 1 280 pixels
Height : 694 pixels
Display aspect ratio : 1.85:1
Frame rate : 23.976 fps
Color space : YUV
Chroma subsampling : 4:2:0
Bit depth : 8 bits
Scan type : Progressive
Bits/(Pixel*Frame) : 0.355
Stream size : 5.48 GiB (60%)
Title : Release for HDCLUB
Writing library : x264 core 124 r2197kMod 69a0443
Encoding settings : cabac=1 / ref=9 / deblock=1:-3:-2 / analyse=0x3:0x113 / me=umh / subme=11 / psy=1 / fade_compensate=0.00 / psy_rd=1.00:0.00 / mixed_ref=1 / me_range=48 / chroma_me=1 / trellis=2 / 8x8dct=1 / cqm=0 / deadzone=21,11 / fast_pskip=1 / chroma_qp_offset=-2 / threads=12 / sliced_threads=0 / nr=0 / decimate=1 / interlaced=0 / bluray_compat=0 / constrained_intra=0 / bframes=13 / b_pyramid=2 / b_adapt=2 / b_bias=0 / direct=1 / weightb=1 / open_gop=0 / weightp=2 / keyint=250 / keyint_min=23 / scenecut=40 / intra_refresh=0 / rc_lookahead=60 / rc=crf / mbtree=1 / crf=17.0000 / qcomp=0.80 / qpmin=0 / qpmax=69 / qpstep=4 / vbv_maxrate=50000 / vbv_bufsize=62500 / crf_max=0.0 / nal_hrd=none / ip_ratio=1.40 / aq=1:0.65
Language : English
Default : Yes
Forced : No
Matrix coefficients : BT.709-5, BT.1361, IEC 61966-2-4 709, SMPTE RP177
Audio #1
ID : 2
Format : AC-3
Format/Info : Audio Coding 3
Mode extension : CM (complete main)
Format settings, Endianness : Big
Codec ID : A_AC3
Duration : 1h 43mn
Bit rate mode : Constant
Bit rate : 640 Kbps
Channel(s) : 6 channels
Channel positions : Front: L C R, Side: L R, LFE
Sampling rate : 48.0 KHz
Bit depth : 16 bits
Compression mode : Lossy
Stream size : 475 MiB (5%)
Title : AC3 5.1 @ 640 kbps - Дублированный, Blu-ray CEE
Language : Russian
Default : Yes
Forced : No
Audio #2
ID : 3
Format : AC-3
Format/Info : Audio Coding 3
Mode extension : CM (complete main)
Format settings, Endianness : Big
Codec ID : A_AC3
Duration : 1h 43mn
Bit rate mode : Constant
Bit rate : 640 Kbps
Channel(s) : 6 channels
Channel positions : Front: L C R, Side: L R, LFE
Sampling rate : 48.0 KHz
Bit depth : 16 bits
Compression mode : Lossy
Stream size : 475 MiB (5%)
Title : AC3 5.1 @ 640 kbps - Многоголосый, R5
Language : Russian
Default : No
Forced : No
Audio #3
ID : 4
Format : AC-3
Format/Info : Audio Coding 3
Mode extension : CM (complete main)
Format settings, Endianness : Big
Codec ID : A_AC3
Duration : 1h 43mn
Bit rate mode : Constant
Bit rate : 640 Kbps
Channel(s) : 6 channels
Channel positions : Front: L C R, Side: L R, LFE
Sampling rate : 48.0 KHz
Bit depth : 16 bits
Compression mode : Lossy
Stream size : 475 MiB (5%)
Title : AC3 5.1 @ 640 kbps - Двухголосый, Tycoon-studio
Language : Russian
Default : No
Forced : No
Audio #4
ID : 5
Format : AC-3
Format/Info : Audio Coding 3
Mode extension : CM (complete main)
Format settings, Endianness : Big
Codec ID : A_AC3
Duration : 1h 43mn
Bit rate mode : Constant
Bit rate : 640 Kbps
Channel(s) : 6 channels
Channel positions : Front: L C R, Side: L R, LFE
Sampling rate : 48.0 KHz
Bit depth : 16 bits
Compression mode : Lossy
Stream size : 475 MiB (5%)
Title : AC3 5.1 @ 640 kbps - Двухголосый
Language : Russian
Default : No
Forced : No
Audio #5
ID : 6
Format : DTS
Format/Info : Digital Theater Systems
Codec ID : A_DTS
Duration : 1h 43mn
Bit rate mode : Constant
Bit rate : 755 Kbps
Channel(s) : 6 channels
Channel positions : Front: L C R, Side: L R, LFE
Sampling rate : 48.0 KHz
Bit depth : 24 bits
Compression mode : Lossy
Stream size : 560 MiB (6%)
Title : DTS 5.1 @ 768 kbps - Двухголосый
Language : Russian
Default : No
Forced : No
Audio #6
ID : 7
Format : AC-3
Format/Info : Audio Coding 3
Mode extension : CM (complete main)
Format settings, Endianness : Big
Codec ID : A_AC3
Duration : 1h 43mn
Bit rate mode : Constant
Bit rate : 640 Kbps
Channel(s) : 6 channels
Channel positions : Front: L C R, Side: L R, LFE
Sampling rate : 48.0 KHz
Bit depth : 16 bits
Compression mode : Lossy
Stream size : 475 MiB (5%)
Title : AC3 5.1 @ 640 kbps - Одноголосый, Ю. Немахов
Language : Russian
Default : No
Forced : No
Audio #7
ID : 8
Format : AC-3
Format/Info : Audio Coding 3
Mode extension : CM (complete main)
Format settings, Endianness : Big
Codec ID : A_AC3
Duration : 1h 43mn
Bit rate mode : Constant
Bit rate : 640 Kbps
Channel(s) : 6 channels
Channel positions : Front: L C R, Side: L R, LFE
Sampling rate : 48.0 KHz
Bit depth : 16 bits
Compression mode : Lossy
Stream size : 475 MiB (5%)
Title : AC3 5.1 @ 640 kbps
Language : English
Default : No
Forced : No
Audio #8
ID : 9
Format : AC-3
Format/Info : Audio Coding 3
Format profile : Dolby Digital
Mode extension : CM (complete main)
Format settings, Endianness : Big
Codec ID : A_AC3
Duration : 1h 43mn
Bit rate mode : Constant
Bit rate : 192 Kbps
Channel(s) : 2 channels
Channel positions : Front: L R
Sampling rate : 48.0 KHz
Bit depth : 16 bits
Compression mode : Lossy
Stream size : 143 MiB (2%)
Title : AC3 2.0 @ 192 kbps - Commentary
Language : English
Default : No
Forced : No
Text #1
ID : 10
Format : UTF-8
Codec ID : S_TEXT/UTF8
Codec ID/Info : UTF-8 Plain Text
Language : Russian
Default : No
Forced : No
Text #2
ID : 11
Format : UTF-8
Codec ID : S_TEXT/UTF8
Codec ID/Info : UTF-8 Plain Text
Language : English
Default : No
Forced : No
Menu
00:00:00.000 : en:Chapter 1
00:05:12.520 : en:Chapter 2
00:10:22.371 : en:Chapter 3
00:18:55.509 : en:Chapter 4
00:22:01.153 : en:Chapter 5
00:28:34.712 : en:Chapter 6
00:35:09.816 : en:Chapter 7
00:40:20.126 : en:Chapter 8
00:45:09.498 : en:Chapter 9
00:51:50.565 : en:Chapter 10
00:54:08.370 : en:Chapter 11
01:00:46.601 : en:Chapter 12
01:13:13.597 : en:Chapter 13
01:20:02.589 : en:Chapter 14
01:26:16.796 : en:Chapter 15
01:32:14.987 : en:Chapter 16

*** Сохранены оригинальные чаптеры с Blu-ray.
*** Дорожки №2-4 получены наложением выделенных голосов на центр декодированного LPCM
*** За выделение голосов R5 и Tycoon-studio спасибо Прагматик-у
*** В фильме чат на русском языке.
*** За дорогу №4 спасибо Serg1004


   
Торрент: Зарегистрирован [11 июн 2013, 01:23] Скачать торрент Магнет ссылка
Скачать торрент
[ Размер 23.46 КБ / Просмотров 99 ]
Статус:
Проверен
 
.torrent скачан: 0 раз
Размер: 9.14 ГБ (9 809 708 798 байт)
   
 
 
Цитата
  • Похожие торренты
    Ответы
    Просмотры
    Последнее сообщение

Вернуться в Зарубежное кино (HD Video)

Кто сейчас на конференции

Сейчас эту тему просматривают: нет зарегистрированных пользователей и гости: 1