(Sophisti-pop, Pop-rock, New wave) Johnny Hates Jazz - Magnetized - 2013, FLAC (tracks+.cue), lossless

 Статистика раздачи 
Размер: 306.12 МБ   |  Зарегистрирован: 05 июн 2013, 20:59   |   .torrent скачан: 4 раз
Сидеров: 2  [ 0 байт/сек ]     Личеров: 5  [ 0 байт/сек ]  
  
Аватара пользователя
Главный редактор
Главный редактор
Автор темы
Раздал: 10.09 ТБ
Скачал: 1.76 ТБ
Ратио: 6.147
Сообщения: 3363
Стаж: 6 лет 11 месяцев
Откуда: Санкт-Петербург

Johnny Hates Jazz / Magnetized


Оригинальное название: Johnny Hates Jazz - Magnetized
Страна: UK
Производитель Диска - Лейбл: Interaction Music
Жанр: Sophisti-pop, Pop-rock, New wave
Дата выхода: 2013
Формат аудио: FLAC
Исполнитель: Johnny Hates Jazz
Тип рипа: image+.cue
Битрэйт: lossless
Продолжительность: 46:23
Трэклист: 01 Magnetized (3:55)
02 Man With No Name (4:00)
03 The Road Not Taken (4:59)
04 You Belong To You (4:27)
05 Release You (5:40)
06 Nevermore (4:23)
07 Ghost Of Love (5:06)
08 Lighthouse (4:57)
09 Goodbye Sweet Yesterday (4:37)
10 Eternal (4:19)

Код: Выделить всё
Exact Audio Copy V1.0 beta 2 from 29. April 2011
EAC extraction logfile from 29. May 2013, 0:44
Johnny Hates Jazz / Magnetized
Used drive  : HL-DT-STDVDRAM GH15F   Adapter: 1  ID: 0
Read mode               : Secure
Utilize accurate stream : Yes
Defeat audio cache      : Yes
Make use of C2 pointers : No
Read offset correction                      : 667
Overread into Lead-In and Lead-Out          : No
Fill up missing offset samples with silence : Yes
Delete leading and trailing silent blocks   : No
Null samples used in CRC calculations       : Yes
Used interface                              : Native Win32 interface for Win NT & 2000
Gap handling                                : Appended to previous track
Used output format              : User Defined Encoder
Selected bitrate                : 128 kBit/s
Quality                         : High
Add ID3 tag                     : No
Command line compressor         : C:\Program Files\Exact Audio Copy\Flac\flac.exe
Additional command line options : -8 -V -T "ARTIST=%artist%" -T "TITLE=%title%" -T "ALBUM=%albumtitle%" -T "DATE=%year%" -T "TRACKNUMBER=%tracknr%" -T "GENRE=%genre%" -T "PERFORMER=%albuminterpret%" -T "COMPOSER=%composer%" %haslyrics%--tag-from-file=LYRICS
TOC of the extracted CD
     Track |   Start  |  Length  | Start sector | End sector
    ---------------------------------------------------------
        1  |  0:00.00 |  3:55.55 |         0    |    17679
        2  |  3:55.55 |  4:00.18 |     17680    |    35697
        3  |  7:55.73 |  4:59.28 |     35698    |    58150
        4  | 12:55.26 |  4:27.36 |     58151    |    78211
        5  | 17:22.62 |  5:40.45 |     78212    |   103756
        6  | 23:03.32 |  4:23.44 |    103757    |   123525
        7  | 27:27.01 |  5:06.53 |    123526    |   146528
        8  | 32:33.54 |  4:57.19 |    146529    |   168822
        9  | 37:30.73 |  4:37.22 |    168823    |   189619
       10  | 42:08.20 |  4:19.30 |    189620    |   209074
Track  1
     Filename J:\Johnny Hates Jazz - Magnetized\01 Magnetized .wav
     Pre-gap length  0:00:02.00
     Peak level 100.0 %
     Extraction speed 3.5 X
     Track quality 99.9 %
     Test CRC 8E5C6190
     Copy CRC 8E5C6190
     Track not present in AccurateRip database
     Copy OK
Track  2
     Filename J:\Johnny Hates Jazz - Magnetized\02 Man With No Name .wav
     Peak level 100.0 %
     Extraction speed 4.7 X
     Track quality 100.0 %
     Test CRC 95808EBF
     Copy CRC 95808EBF
     Track not present in AccurateRip database
     Copy OK
Track  3
     Filename J:\Johnny Hates Jazz - Magnetized\03 The Road Not Taken .wav
     Peak level 100.0 %
     Extraction speed 5.2 X
     Track quality 100.0 %
     Test CRC DBD2AC77
     Copy CRC DBD2AC77
     Track not present in AccurateRip database
     Copy OK
Track  4
     Filename J:\Johnny Hates Jazz - Magnetized\04 You Belong To You .wav
     Peak level 100.0 %
     Extraction speed 5.7 X
     Track quality 100.0 %
     Test CRC 2C2579B6
     Copy CRC 2C2579B6
     Track not present in AccurateRip database
     Copy OK
Track  5
     Filename J:\Johnny Hates Jazz - Magnetized\05 Release You .wav
     Peak level 98.1 %
     Extraction speed 5.4 X
     Track quality 99.9 %
     Test CRC 43602ECA
     Copy CRC 43602ECA
     Track not present in AccurateRip database
     Copy OK
Track  6
     Filename J:\Johnny Hates Jazz - Magnetized\06 Nevermore .wav
     Peak level 95.0 %
     Extraction speed 5.4 X
     Track quality 99.9 %
     Test CRC 1DCBC5D0
     Copy CRC 1DCBC5D0
     Track not present in AccurateRip database
     Copy OK
Track  7
     Filename J:\Johnny Hates Jazz - Magnetized\07 Ghost of Love .wav
     Peak level 100.0 %
     Extraction speed 6.7 X
     Track quality 100.0 %
     Test CRC D67B797A
     Copy CRC D67B797A
     Track not present in AccurateRip database
     Copy OK
Track  8
     Filename J:\Johnny Hates Jazz - Magnetized\08 Lighthouse .wav
     Peak level 100.0 %
     Extraction speed 7.3 X
     Track quality 100.0 %
     Test CRC 4B618F37
     Copy CRC 4B618F37
     Track not present in AccurateRip database
     Copy OK
Track  9
     Filename J:\Johnny Hates Jazz - Magnetized\09 Goodbye Sweet Yesterday .wav
     Peak level 100.0 %
     Extraction speed 7.4 X
     Track quality 100.0 %
     Test CRC D1308A02
     Copy CRC D1308A02
     Track not present in AccurateRip database
     Copy OK
Track 10
     Filename J:\Johnny Hates Jazz - Magnetized\10 Eternal .wav
     Peak level 100.0 %
     Extraction speed 7.6 X
     Track quality 100.0 %
     Test CRC AB93E9FD
     Copy CRC AB93E9FD
     Track not present in AccurateRip database
     Copy OK
None of the tracks are present in the AccurateRip database
No errors occurred
End of status report
---- CUETools DB Plugin V2.1.3
[CTDB TOCID: ddBk2eboXX5HylVC.gG3N6tRvpo-] found, Submit result: ddBk2eboXX5HylVC.gG3N6tRvpo- has been confirmed
[b7fd98ed] (1/1) Accurately ripped
==== Log checksum 74F102C083D961D4720DF793F7867D651D470681D7DF2F7C0EC74ED2CF959D47 ====


Код: Выделить всё
REM GENRE Pop
REM DATE 2013
REM DISCID 8C0AE30A
REM COMMENT "ExactAudioCopy v1.0b2"
CATALOG 5060342290021
PERFORMER "Johnny Hates Jazz"
TITLE "Magnetized"
FILE "01 Magnetized .wav" WAVE
  TRACK 01 AUDIO
    TITLE "Magnetized"
    PERFORMER "Johnny Hates Jazz"
    ISRC GBQKS0710001
    INDEX 01 00:00:00
FILE "02 Man With No Name .wav" WAVE
  TRACK 02 AUDIO
    TITLE "Man With No Name"
    PERFORMER "Johnny Hates Jazz"
    ISRC GBQKS0710002
    INDEX 01 00:00:00
FILE "03 The Road Not Taken .wav" WAVE
  TRACK 03 AUDIO
    TITLE "The Road Not Taken"
    PERFORMER "Johnny Hates Jazz"
    ISRC GBQKS0710003
    INDEX 01 00:00:00
FILE "04 You Belong To You .wav" WAVE
  TRACK 04 AUDIO
    TITLE "You Belong To You"
    PERFORMER "Johnny Hates Jazz"
    ISRC GBQKS0710004
    INDEX 01 00:00:00
FILE "05 Release You .wav" WAVE
  TRACK 05 AUDIO
    TITLE "Release You"
    PERFORMER "Johnny Hates Jazz"
    ISRC GBQKS0710005
    INDEX 01 00:00:00
FILE "06 Nevermore .wav" WAVE
  TRACK 06 AUDIO
    TITLE "Nevermore"
    PERFORMER "Johnny Hates Jazz"
    ISRC GBQKS0710006
    INDEX 01 00:00:00
FILE "07 Ghost of Love .wav" WAVE
  TRACK 07 AUDIO
    TITLE "Ghost of Love"
    PERFORMER "Johnny Hates Jazz"
    ISRC GBQKS0710007
    INDEX 01 00:00:00
FILE "08 Lighthouse .wav" WAVE
  TRACK 08 AUDIO
    TITLE "Lighthouse"
    PERFORMER "Johnny Hates Jazz"
    ISRC GBQKS0710008
    INDEX 01 00:00:00
FILE "09 Goodbye Sweet Yesterday .wav" WAVE
  TRACK 09 AUDIO
    TITLE "Goodbye Sweet Yesterday"
    PERFORMER "Johnny Hates Jazz"
    ISRC GBQKS0710009
    INDEX 01 00:00:00
FILE "10 Eternal .wav" WAVE
  TRACK 10 AUDIO
    TITLE "Eternal"
    PERFORMER "Johnny Hates Jazz"
    ISRC GBQKS0710010
    INDEX 01 00:00:00

Clark Datchler — vocalist, keyboard player, guitarist (1986–1988; 2009–present)
Mike Nocito — bassist (1986-1992, 2009–present)




   
Торрент: Зарегистрирован [05 июн 2013, 20:59] Electronic Скачать торрент Магнет ссылка
Скачать торрент
[ Размер 13.15 КБ / Просмотров 144 ]
Статус:
Проверен
 
.torrent скачан: 4 раз
Размер: 306.12 МБ (320 989 417 байт)
   
 
 
Цитата
  • Похожие торренты
    Ответы
    Просмотры
    Последнее сообщение

Вернуться в Electronic

Кто сейчас на конференции

Сейчас эту тему просматривают: нет зарегистрированных пользователей и гости: 1