BSOD - экран смерти. Знакомство (2013) / BSOD - screen of death. Introduction (2013) [2012 г., Обучающее видео, DVDRip]

 Статистика раздачи 
Размер: 255.74 МБ   |  Зарегистрирован: 25 май 2013, 10:50   |   .torrent скачан: 2 раз
Сидеров: 1  [ 0 байт/сек ]     Личеров: 29  [ 0 байт/сек ]  
  
Аватара пользователя
Администратор
Администратор
 
Раздал: 24.48 ТБ
Скачал: 388.83 ГБ
Ратио: 145.347
Сообщения: 6101
Стаж: 7 лет 9 месяцев 12 дней
Откуда: Lithuania

BSOD - экран смерти. Знакомство (2013) / BSOD - screen of death. Introduction (2013)


Оригинальное название: BSOD - экран смерти. Знакомство (2013) / BSOD - screen of death. Introduction (2013)
Дата выхода: 2013
Жанр: Обучающее видео
Перевод: Оригинал
Продолжительность: 00:09:45

Описание: Сегодня мы подробно поговорим о "градуснике" ПК/ноутбука - Синем экране смерти... Синий экран смерти (англ. Blue Screen of Death, Blue Screen of Doom, BSoD) - название сообщения о критической системной ошибке в операционных системах Microsoft Windows. Данный тип ошибок возникает после серьезного сбоя в операционной системе. Также BSoD может появляться в следствии некорректно установленных драйверов, несовместимостью драйверов, несовместимостью оборудования или программного обеспечения.

Качество: DVDRip
Формат видео: MPEG-PS
Формат аудио: MP3
Видео: MPEG2 Video, 3402 Кбит/сек, 1280x720, 16:9, 25,000 кадров/сек
Аудио #1: MPEG2 Audio, 48,0 КГц, 2 канала, 192 Кбит/сек

General
Complete name : D:\ВРЕМЕННАЯ\BSOD - экран смерти. Знакомство (2013)\BSODdd.MPG
Format : MPEG-PS
File size : 256 MiB
Duration : 9mn 45s
Overall bit rate mode : Variable
Overall bit rate : 3 666 Kbps

Video
ID : 224 (0xE0)
Format : MPEG Video
Format version : Version 2
Format profile : [email protected]
Format settings, BVOP : Yes
Format settings, Matrix : Default
Format settings, GOP : M=3, N=12
Duration : 9mn 45s
Bit rate mode : Variable
Bit rate : 3 402 Kbps
Maximum bit rate : 2 519 Mbps
Width : 1 280 pixels
Height : 720 pixels
Display aspect ratio : 16:9
Frame rate : 25.000 fps
Color space : YUV
Chroma subsampling : 4:2:0
Bit depth : 8 bits
Scan type : Progressive
Compression mode : Lossy
Bits/(Pixel*Frame) : 0.148
Stream size : 237 MiB (93%)

Audio
ID : 192 (0xC0)
Format : MPEG Audio
Format version : Version 1
Format profile : Layer 2
Duration : 9mn 45s
Bit rate mode : Constant
Bit rate : 192 Kbps
Channel(s) : 2 channels
Sampling rate : 48.0 KHz
Compression mode : Lossy
Delay relative to video : 22ms
Stream size : 13.4 MiB (5%)



   
Торрент: Зарегистрирован [25 май 2013, 10:50] Скачать торрент Магнет ссылка
Скачать торрент
[ Размер 20.46 КБ / Просмотров 182 ]
Статус:
Проверен
 
.torrent скачан: 2 раз
Размер: 255.74 МБ (268 167 168 байт)
   Стать Автором раздачи
 
 
Цитата
  • Похожие торренты
    Ответы
    Просмотры
    Последнее сообщение

Вернуться в Программирование

Кто сейчас на конференции

Сейчас эту тему просматривают: нет зарегистрированных пользователей и гости: 1