(Soundtrack) Настоящая кровь / True Blood: Volume 1-3 (2009-2011) [FLAC (tracks+.cue) lossless]

 Статистика раздачи 
Размер: 938.26 МБ   |  Зарегистрирован: 15 май 2013, 01:50   |   .torrent скачан: 4 раз
Сидеров: 10  [ 0 байт/сек ]     Личеров: 9  [ 0 байт/сек ]  
  
Аватара пользователя
Администратор
Администратор
Автор темы
Раздал: 24.47 ТБ
Скачал: 388.83 ГБ
Ратио: 145.334
Сообщения: 5369
Стаж: 7 лет 1 месяц 9 дней
Откуда: Lithuania

True Blood: Volume 1-3


Оригинальное название: True Blood: Volume 1-3
Дата выхода: 2013
Страна: USA
Производитель Диска - Лейбл: what.cd
Жанр: Soundtrack
Формат аудио: FLAC
Битрэйт: lossless
Тип рипа: tracks+.cue
Продолжительность: 00:47:33 + 00:51:44 + 00:50:02
Трэклист:

01. Jace Everett - Bad Things (02:43)
02. CC Adcock & The Lafayette Marquis - Bleed 2 Feed (04:53)
03. Lucinda Williams - Lake Charles (05:27)
04. Lee Dorsey - Give It Up (03:00)
05. Th' Legendary Shack*Shakers - Swampblood (03:12)
06. Cobra Verde - Play With Fire (02:37)
07. The Watson Twins - Just Like Heaven (04:15)
08. The Flying Burrito Brothers - Christine's Tune [A.K.A. Devil In Disguise] (03:00)
09. Ryan Adams - Two (02:38)
10. Slim Harpo - Strange Love (02:08)
11. Allen Toussaint - From A Whisper To A Scream (03:30)
12. Dr. John - I Don't Wanna Know (03:24)
13. John Doe (feat. Kathleen Edwards) - The Golden State (03:00)
14. Little Big Town - Bones (03:47)
Продолжительность: 00:47:33


Exact Audio Copy V0.99 prebeta 5 from 4. May 2009
EAC extraction logfile from 18. September 2009, 15:12
Various Artists / True Blood
Used drive : TSSTcorpDVD+-RW TS-H653F Adapter: 0 ID: 2
Read mode : Secure
Utilize accurate stream : Yes
Defeat audio cache : Yes
Make use of C2 pointers : No
Read offset correction : 6
Overread into Lead-In and Lead-Out : No
Fill up missing offset samples with silence : Yes
Delete leading and trailing silent blocks : No
Null samples used in CRC calculations : Yes
Used interface : Native Win32 interface for Win NT & 2000
Gap handling : Appended to previous track
Used output format : User Defined Encoder
Selected bitrate : 1024 kBit/s
Quality : High
Add ID3 tag : No
Command line compressor : C:\Program Files (x86)\Exact Audio Copy\Flac\flac.exe
Additional command line options : -8 -V -T "ARTIST=%a" -T "TITLE=%t" -T "ALBUM=%g" -T "DATE=%y" -T "TRACKNUMBER=%n" -T "GENRE=%m" -T "COMMENT=EAC FLAC -8" %s
TOC of the extracted CD
Track | Start | Length | Start sector | End sector
---------------------------------------------------------
1 | 0:00.00 | 2:43.07 | 0 | 12231
2 | 2:43.07 | 4:52.51 | 12232 | 34182
3 | 7:35.58 | 5:27.19 | 34183 | 58726
4 | 13:03.02 | 3:00.08 | 58727 | 72234
5 | 16:03.10 | 3:11.46 | 72235 | 86605
6 | 19:14.56 | 2:36.59 | 86606 | 98364
7 | 21:51.40 | 4:15.00 | 98365 | 117489
8 | 26:06.40 | 3:00.27 | 117490 | 131016
9 | 29:06.67 | 2:37.38 | 131017 | 142829
10 | 31:44.30 | 2:08.24 | 142830 | 152453
11 | 33:52.54 | 3:29.65 | 152454 | 168193
12 | 37:22.44 | 3:24.14 | 168194 | 183507
13 | 40:46.58 | 2:59.61 | 183508 | 196993
14 | 43:46.44 | 3:46.45 | 196994 | 213988
Track 1
Filename C:\EAC Rips\01 - Everett, Jace - Bad Things.wav
Pre-gap length 0:00:02.00
Peak level 91.1 %
Track quality 100.0 %
Test CRC 423E3EA7
Copy CRC 423E3EA7
Accurately ripped (confidence 3) [E103A256]
Copy OK
Track 2
Filename C:\EAC Rips\02 - Adcock, CC & The Lafayette Marquis - Bleed 2 Feed.wav
Peak level 94.4 %
Track quality 100.0 %
Test CRC 1E0657C1
Copy CRC 1E0657C1
Accurately ripped (confidence 3) [78F98929]
Copy OK
Track 3
Filename C:\EAC Rips\03 - Williams, Lucinda - Lake Charles.wav
Peak level 100.0 %
Track quality 100.0 %
Test CRC 0F30E2CF
Copy CRC 0F30E2CF
Accurately ripped (confidence 3) [319A5809]
Copy OK
Track 4
Filename C:\EAC Rips\04 - Dorsey, Lee - Give It Up.wav
Peak level 96.4 %
Track quality 100.0 %
Test CRC 1D872B18
Copy CRC 1D872B18
Accurately ripped (confidence 3) [3085226D]
Copy OK
Track 5
Filename C:\EAC Rips\05 - Th' Legendary ShackxShakers - Swampblood.wav
Peak level 94.3 %
Track quality 99.9 %
Test CRC D7751D16
Copy CRC D7751D16
Accurately ripped (confidence 3) [D3C24A6A]
Copy OK
Track 6
Filename C:\EAC Rips\06 - Cobra Verde - Play With Fire.wav
Pre-gap length 0:00:01.28
Peak level 97.9 %
Track quality 100.0 %
Test CRC 7D81717C
Copy CRC 7D81717C
Accurately ripped (confidence 3) [B1438E78]
Copy OK
Track 7
Filename C:\EAC Rips\07 - Watson Twins, The - Just Like Heaven.wav
Peak level 98.8 %
Track quality 99.9 %
Test CRC 748CCB28
Copy CRC 748CCB28
Accurately ripped (confidence 3) [95EB4C4E]
Copy OK
Track 8
Filename C:\EAC Rips\08 - Flying Burrito Brothers, The - Christine's Tune [A.K.A. Devil In Disguise].wav
Peak level 99.9 %
Track quality 100.0 %
Test CRC C23E1997
Copy CRC C23E1997
Accurately ripped (confidence 3) [FDE31E99]
Copy OK
Track 9
Filename C:\EAC Rips\09 - Adams, Ryan - Two.wav
Peak level 89.1 %
Track quality 100.0 %
Test CRC 48E52D58
Copy CRC 48E52D58
Accurately ripped (confidence 3) [BEF273DD]
Copy OK
Track 10
Filename C:\EAC Rips\10 - Slim Harpo - Strange Love.wav
Peak level 98.8 %
Track quality 100.0 %
Test CRC 7F8D75E6
Copy CRC 7F8D75E6
Accurately ripped (confidence 3) [128A77AE]
Copy OK
Track 11
Filename C:\EAC Rips\11 - Toussaint, Allen - From A Whisper To A Scream.wav
Peak level 98.8 %
Track quality 99.9 %
Test CRC 3EB0F409
Copy CRC 3EB0F409
Accurately ripped (confidence 3) [DA5B680E]
Copy OK
Track 12
Filename C:\EAC Rips\12 - Dr. John - I Don't Wanna Know.wav
Pre-gap length 0:00:02.50
Peak level 98.8 %
Track quality 99.9 %
Test CRC 5F7FB8EE
Copy CRC 5F7FB8EE
Accurately ripped (confidence 3) [0C8189CE]
Copy OK
Track 13
Filename C:\EAC Rips\13 - John Doe (Feat. Kathleen Edwards) - The Golden State.wav
Pre-gap length 0:00:01.78
Peak level 83.1 %
Track quality 100.0 %
Test CRC 1EB5A9B3
Copy CRC 1EB5A9B3
Accurately ripped (confidence 3) [2FD6E21C]
Copy OK
Track 14
Filename C:\EAC Rips\14 - Little Big Town - Bones.wav
Peak level 80.0 %
Track quality 100.0 %
Test CRC EF049A42
Copy CRC EF049A42
Accurately ripped (confidence 3) [F2B58363]
Copy OK
All tracks accurately ripped
No errors occurred
End of status report



REM GENRE Soundtrack
REM DATE 2009
REM DISCID CC0B250E
REM COMMENT "ExactAudioCopy v0.99pb5"
PERFORMER "Various Artists"
TITLE "True Blood"
FILE "01 - Jace Everett - Bad Things.wav" WAVE
TRACK 01 AUDIO
TITLE "Bad Things"
PERFORMER "Jace Everett"
INDEX 01 00:00:00
FILE "02 - CC Adcock & The Lafayette Marquis - Bleed 2 Feed.wav" WAVE
TRACK 02 AUDIO
TITLE "Bleed 2 Feed"
PERFORMER "CC Adcock & The Lafayette Marquis"
INDEX 01 00:00:00
FILE "03 - Lucinda Williams - Lake Charles.wav" WAVE
TRACK 03 AUDIO
TITLE "Lake Charles"
PERFORMER "Lucinda Williams"
INDEX 01 00:00:00
FILE "04 - Lee Dorsey - Give It Up.wav" WAVE
TRACK 04 AUDIO
TITLE "Give It Up"
PERFORMER "Lee Dorsey"
INDEX 01 00:00:00
FILE "05 - Th' Legendary Shack_Shakers - Swampblood.wav" WAVE
TRACK 05 AUDIO
TITLE Swampblood
PERFORMER "Th' Legendary Shack*Shakers"
INDEX 01 00:00:00
TRACK 06 AUDIO
TITLE "Play With Fire"
PERFORMER "Cobra Verde"
INDEX 00 03:10:25
FILE "06 - Cobra Verde - Play With Fire.wav" WAVE
INDEX 01 00:00:00
FILE "07 - The Watson Twins - Just Like Heaven.wav" WAVE
TRACK 07 AUDIO
TITLE "Just Like Heaven"
PERFORMER "The Watson Twins"
INDEX 01 00:00:00
FILE "08 - The Flying Burrito Brothers - Christine's Tune [A.K.A. Devil In Disguise].wav" WAVE
TRACK 08 AUDIO
TITLE "Christine's Tune [A.K.A. Devil In Disguise]"
PERFORMER "The Flying Burrito Brothers"
INDEX 01 00:00:00
FILE "09 - Ryan Adams - Two.wav" WAVE
TRACK 09 AUDIO
TITLE "Two"
PERFORMER "Ryan Adams"
INDEX 01 00:00:00
FILE "10 - Slim Harpo - Strange Love.wav" WAVE
TRACK 10 AUDIO
TITLE "Strange Love"
PERFORMER "Slim Harpo"
INDEX 01 00:00:00
FILE "11 - Allen Toussaint - From A Whisper To A Scream.wav" WAVE
TRACK 11 AUDIO
TITLE "From A Whisper To A Scream"
PERFORMER "Allen Toussaint"
INDEX 01 00:00:00
TRACK 12 AUDIO
TITLE "I Don't Wanna Know"
PERFORMER "Dr. John"
INDEX 00 03:27:27
FILE "12 - Dr. John - I Don't Wanna Know.wav" WAVE
INDEX 01 00:00:00
TRACK 13 AUDIO
TITLE "The Golden State"
PERFORMER "John Doe (feat. Kathleen Edwards)"
INDEX 00 03:22:30
FILE "13 - John Doe (feat. Kathleen Edwards) - The Golden State.wav" WAVE
INDEX 01 00:00:00
FILE "14 - Little Big Town - Bones.wav" WAVE
TRACK 14 AUDIO
TITLE "Bones"
PERFORMER "Little Big Town"
INDEX 01 00:00:00




01. M. Ward - Howlin' For My Baby (03:00)
02. Jace Everett & C.C. Adcock - Evil (Is Going On) (03:03)
03. Beck - Bad Blood (03:28)
04. Robbie Robertson - How To Become Clairvoyant (06:14)
05. Jr. Walker & The All Stars - Shake And Fingerpop (02:44)
06. Screamin' Jay Hawkins - Frenzy (02:11)
07. Lucinda Williams & Elvis Costello - Kiss Like Your Kiss (03:50)
08. Buddy & Julie Miller - Gasoline And Matches (03:14)
09. Chuck Prophet - You Did (Bomp Shooby Dooby Bomp) (04:29)
10. 13th Floor Elevators - You're Gonna Miss Me (02:28)
11. Eels - Fresh Blood (04:26)
12. Thievery Corporation - Forgotten People (03:13)
13. King Britt & Sister Gertude Morgan - New World In My View (05:34)
14. Bob Dylan - Beyond Here Lies Nothin' (03:50)
Продолжительность: 00:51:44

Exact Audio Copy V0.99 prebeta 5 from 4. May 2009
EAC extraction logfile from 2. June 2010, 15:43
Various Artists / True Blood: Music From the HBO Original Series Volume 2
Used drive : LITE-ON DVDRW LH-20A1L Adapter: 2 ID: 2
Read mode : Secure
Utilize accurate stream : Yes
Defeat audio cache : Yes
Make use of C2 pointers : No
Read offset correction : 6
Overread into Lead-In and Lead-Out : No
Fill up missing offset samples with silence : Yes
Delete leading and trailing silent blocks : No
Null samples used in CRC calculations : Yes
Used interface : Native Win32 interface for Win NT & 2000
Gap handling : Appended to previous track
Used output format : User Defined Encoder
Selected bitrate : 320 kBit/s
Quality : High
Add ID3 tag : No
Command line compressor : C:\Program Files (x86)\Exact Audio Copy\Flac\flac.exe
Additional command line options : -V -8 -T "artist=%a" -T "title=%t" -T "album=%g" -T "date=%y" -T "tracknumber=%n" -T "genre=%m" %s
TOC of the extracted CD
Track | Start | Length | Start sector | End sector
---------------------------------------------------------
1 | 0:00.00 | 3:00.05 | 0 | 13504
2 | 3:00.05 | 3:03.35 | 13505 | 27264
3 | 6:03.40 | 3:28.02 | 27265 | 42866
4 | 9:31.42 | 6:13.53 | 42867 | 70894
5 | 15:45.20 | 2:44.00 | 70895 | 83194
6 | 18:29.20 | 2:11.12 | 83195 | 93031
7 | 20:40.32 | 3:50.35 | 93032 | 110316
8 | 24:30.67 | 3:13.53 | 110317 | 124844
9 | 27:44.45 | 4:29.12 | 124845 | 145031
10 | 32:13.57 | 2:27.68 | 145032 | 156124
11 | 34:41.50 | 4:26.07 | 156125 | 176081
12 | 39:07.57 | 3:13.30 | 176082 | 190586
13 | 42:21.12 | 5:33.50 | 190587 | 215611
14 | 47:54.62 | 3:50.13 | 215612 | 232874
Track 1
Filename C:\EAC\Various Artists - 2010 - True Blood- Music From the HBO Original Series Volume 2\01 - M. Ward - Howlin' For My Baby.wav
Pre-gap length 0:00:02.00
Peak level 98.7 %
Track quality 100.0 %
Test CRC 8D820A76
Copy CRC 8D820A76
Track not present in AccurateRip database
Copy OK
Track 2
Filename C:\EAC\Various Artists - 2010 - True Blood- Music From the HBO Original Series Volume 2\02 - Jace Everett & C.C. Adcock - Evil (Is Going On).wav
Peak level 98.7 %
Track quality 100.0 %
Test CRC 15CE7EB1
Copy CRC 15CE7EB1
Track not present in AccurateRip database
Copy OK
Track 3
Filename C:\EAC\Various Artists - 2010 - True Blood- Music From the HBO Original Series Volume 2\03 - Beck - Bad Blood.wav
Pre-gap length 0:00:00.90
Peak level 94.3 %
Track quality 100.0 %
Test CRC 2789306C
Copy CRC 2789306C
Track not present in AccurateRip database
Copy OK
Track 4
Filename C:\EAC\Various Artists - 2010 - True Blood- Music From the HBO Original Series Volume 2\04 - Robbie Robertson - How To Become Clairvoyant.wav
Pre-gap length 0:00:00.69
Peak level 98.7 %
Track quality 100.0 %
Test CRC 89FE1854
Copy CRC 89FE1854
Track not present in AccurateRip database
Copy OK
Track 5
Filename C:\EAC\Various Artists - 2010 - True Blood- Music From the HBO Original Series Volume 2\05 - Jr. Walker & The All Stars - Shake And Fingerpop.wav
Peak level 88.0 %
Track quality 100.0 %
Test CRC 42C93BAE
Copy CRC 42C93BAE
Track not present in AccurateRip database
Copy OK
Track 6
Filename C:\EAC\Various Artists - 2010 - True Blood- Music From the HBO Original Series Volume 2\06 - Screamin' Jay Hawkins - Frenzy.wav
Pre-gap length 0:00:01.00
Peak level 83.0 %
Track quality 99.9 %
Test CRC 11C2EC64
Copy CRC 11C2EC64
Track not present in AccurateRip database
Copy OK
Track 7
Filename C:\EAC\Various Artists - 2010 - True Blood- Music From the HBO Original Series Volume 2\07 - Lucinda Williams & Elvis Costello - Kiss Like Your Kiss.wav
Pre-gap length 0:00:00.33
Peak level 93.2 %
Track quality 99.9 %
Test CRC 2E1E136F
Copy CRC 2E1E136F
Track not present in AccurateRip database
Copy OK
Track 8
Filename C:\EAC\Various Artists - 2010 - True Blood- Music From the HBO Original Series Volume 2\08 - Buddy & Julie Miller - Gasoline And Matches.wav
Peak level 98.7 %
Track quality 100.0 %
Test CRC 3C9CF497
Copy CRC 3C9CF497
Track not present in AccurateRip database
Copy OK
Track 9
Filename C:\EAC\Various Artists - 2010 - True Blood- Music From the HBO Original Series Volume 2\09 - Chuck Prophet - You Did (Bomp Shooby Dooby Bomp).wav
Pre-gap length 0:00:00.84
Peak level 98.7 %
Track quality 100.0 %
Test CRC 3AD81461
Copy CRC 3AD81461
Track not present in AccurateRip database
Copy OK
Track 10
Filename C:\EAC\Various Artists - 2010 - True Blood- Music From the HBO Original Series Volume 2\10 - 13th Floor Elevators - You're Gonna Miss Me.wav
Peak level 98.7 %
Track quality 100.0 %
Test CRC BFE46369
Copy CRC BFE46369
Track not present in AccurateRip database
Copy OK
Track 11
Filename C:\EAC\Various Artists - 2010 - True Blood- Music From the HBO Original Series Volume 2\11 - Eels - Fresh Blood.wav
Pre-gap length 0:00:00.20
Peak level 96.4 %
Track quality 100.0 %
Test CRC DBC67290
Copy CRC DBC67290
Track not present in AccurateRip database
Copy OK
Track 12
Filename C:\EAC\Various Artists - 2010 - True Blood- Music From the HBO Original Series Volume 2\12 - Thievery Corporation - Forgotten People.wav
Pre-gap length 0:00:02.16
Peak level 98.7 %
Track quality 100.0 %
Test CRC BD7EF516
Copy CRC BD7EF516
Track not present in AccurateRip database
Copy OK
Track 13
Filename C:\EAC\Various Artists - 2010 - True Blood- Music From the HBO Original Series Volume 2\13 - King Britt & Sister Gertude Morgan - New World In My View.wav
Pre-gap length 0:00:00.96
Peak level 98.7 %
Track quality 100.0 %
Test CRC DB87C77E
Copy CRC DB87C77E
Track not present in AccurateRip database
Copy OK
Track 14
Filename C:\EAC\Various Artists - 2010 - True Blood- Music From the HBO Original Series Volume 2\14 - Bob Dylan - Beyond Here Lies Nothin'.wav
Pre-gap length 0:00:01.73
Peak level 99.7 %
Track quality 100.0 %
Test CRC 1EFA25FD
Copy CRC 1EFA25FD
Track not present in AccurateRip database
Copy OK
None of the tracks are present in the AccurateRip database
No errors occurred
End of status report



REM GENRE Soundtrack
REM DATE 2010
REM DISCID C20C210E
REM COMMENT "ExactAudioCopy v0.99pb5"
PERFORMER "Various Artists"
TITLE "True Blood: Volume 2"
FILE "01 - M. Ward - Howlin' For My Baby.wav" WAVE
TRACK 01 AUDIO
TITLE "Howlin' For My Baby"
PERFORMER "M. Ward"
INDEX 01 00:00:00
FILE "02 - Jace Everett & C.C. Adcock - Evil (Is Going On).wav" WAVE
TRACK 02 AUDIO
TITLE "Evil (Is Going On)"
PERFORMER "Jace Everett & C.C. Adcock"
INDEX 01 00:00:00
TRACK 03 AUDIO
TITLE "Bad Blood"
PERFORMER "Beck"
INDEX 00 03:02:42
FILE "03 - Beck - Bad Blood.wav" WAVE
INDEX 01 00:00:00
TRACK 04 AUDIO
TITLE "How To Become Clairvoyant"
PERFORMER "Robbie Robertson"
INDEX 00 03:27:25
FILE "04 - Robbie Robertson - How To Become Clairvoyant.wav" WAVE
INDEX 01 00:00:00
FILE "05 - Jr. Walker & The All Stars - Shake And Fingerpop.wav" WAVE
TRACK 05 AUDIO
TITLE "Shake And Fingerpop"
PERFORMER "Jr. Walker & The All Stars"
INDEX 01 00:00:00
TRACK 06 AUDIO
TITLE "Frenzy"
PERFORMER "Screamin' Jay Hawkins"
INDEX 00 02:43:00
FILE "06 - Screamin' Jay Hawkins - Frenzy.wav" WAVE
INDEX 01 00:00:00
TRACK 07 AUDIO
TITLE "Kiss Like Your Kiss"
PERFORMER "Lucinda Williams & Elvis Costello"
INDEX 00 02:10:62
FILE "07 - Lucinda Williams & Elvis Costello - Kiss Like Your Kiss.wav" WAVE
INDEX 01 00:00:00
FILE "08 - Buddy & Julie Miller - Gasoline And Matches.wav" WAVE
TRACK 08 AUDIO
TITLE "Gasoline And Matches"
PERFORMER "Buddy & Julie Miller"
INDEX 01 00:00:00
TRACK 09 AUDIO
TITLE "You Did (Bomp Shooby Dooby Bomp)"
PERFORMER "Chuck Prophet"
INDEX 00 03:12:65
FILE "09 - Chuck Prophet - You Did (Bomp Shooby Dooby Bomp).wav" WAVE
INDEX 01 00:00:00
FILE "10 - 13th Floor Elevators - You're Gonna Miss Me.wav" WAVE
TRACK 10 AUDIO
TITLE "You're Gonna Miss Me"
PERFORMER "13th Floor Elevators"
INDEX 01 00:00:00
TRACK 11 AUDIO
TITLE "Fresh Blood"
PERFORMER "Eels"
INDEX 00 02:27:53
FILE "11 - Eels - Fresh Blood.wav" WAVE
INDEX 01 00:00:00
TRACK 12 AUDIO
TITLE "Forgotten People"
PERFORMER "Thievery Corporation"
INDEX 00 04:23:70
FILE "12 - Thievery Corporation - Forgotten People.wav" WAVE
INDEX 01 00:00:00
TRACK 13 AUDIO
TITLE "New World In My View"
PERFORMER "King Britt & Sister Gertude Morgan"
INDEX 00 03:12:33
FILE "13 - King Britt & Sister Gertude Morgan - New World In My View.wav" WAVE
INDEX 01 00:00:00
TRACK 14 AUDIO
TITLE "Beyond Here Lies Nothin'"
PERFORMER "Bob Dylan"
INDEX 00 05:31:70
FILE "14 - Bob Dylan - Beyond Here Lies Nothin'.wav" WAVE
INDEX 01 00:00:00




[font=Tahoma]01. Karen Elson fea. Donovan - Season Of The Witch (03:26)
02. Gil Scott Heron - Me And The Devil (03:35)
03. Slim Harpo - Te Ni Nee Ni Nu (02:05)
04. Neko Case and Nick Cave - She's Not There (02:29)
05. PJ Harvey and Gordon Gano - Hitting The Ground (03:00)
06. Siouxsie and the Banshees - Spellbound (03:19)
07. Damien Rice - 9 Crimes (Demo) (03:11)
08. Nick Lowe - Cold Grey Light Of Dawn (02:57)
09. Cary Ann Hearst - Hell's Bells (03:36)
10. Jakob Dylan and Gary Louris - Gonna Be A Darkness (04:50)
11. Blakroc - What You Do To Me (05:07)
12. Massive Attack - Paradise Circus (04:59)
13. The Heavy - And When I Die (04:44)
14. Jace Everett - Bad Things (02:44)
Продолжительность: 00:50:02

Exact Audio Copy V1.0 beta 2 from 29. April 2011
EAC extraction logfile from 3. November 2011, 23:08
Various / True Blood - Music From The HBO Original Series - Volume 3
Used drive : PLDS DVD+-RW DS-8A5SH Adapter: 0 ID: 1
Read mode : Secure
Utilize accurate stream : Yes
Defeat audio cache : Yes
Make use of C2 pointers : No
Read offset correction : 6
Overread into Lead-In and Lead-Out : No
Fill up missing offset samples with silence : Yes
Delete leading and trailing silent blocks : No
Null samples used in CRC calculations : Yes
Used interface : Native Win32 interface for Win NT & 2000
Gap handling : Appended to previous track
Used output format : User Defined Encoder
Selected bitrate : 1024 kBit/s
Quality : High
Add ID3 tag : No
Command line compressor : C:\Program Files (x86)\Exact Audio Copy\Flac\flac.exe
Additional command line options : -8 -V -T "ARTIST=%artist%" -T "TITLE=%title%" -T "ALBUM=%albumtitle%" -T "DATE=%year%" -T "TRACKNUMBER=%tracknr%" -T "GENRE=%genre%" -T "PERFORMER=%albuminterpret%" -T "COMPOSER=%composer%" %haslyrics%--tag-from-file=LYRICS
TOC of the extracted CD
Track | Start | Length | Start sector | End sector
---------------------------------------------------------
1 | 0:00.00 | 3:25.43 | 0 | 15417
2 | 3:25.43 | 3:35.03 | 15418 | 31545
3 | 7:00.46 | 2:05.21 | 31546 | 40941
4 | 9:05.67 | 2:29.21 | 40942 | 52137
5 | 11:35.13 | 2:59.50 | 52138 | 65612
6 | 14:34.63 | 3:19.04 | 65613 | 80541
7 | 17:53.67 | 3:11.12 | 80542 | 94878
8 | 21:05.04 | 2:56.45 | 94879 | 108123
9 | 24:01.49 | 3:36.15 | 108124 | 124338
10 | 27:37.64 | 4:50.11 | 124339 | 146099
11 | 32:28.00 | 5:07.28 | 146100 | 169152
12 | 37:35.28 | 4:59.28 | 169153 | 191605
13 | 42:34.56 | 4:43.70 | 191606 | 212900
14 | 47:18.51 | 2:44.05 | 212901 | 225205
Track 1
Filename C:\Users\Dean Laptop\Desktop\FLAC\True Blood 3\01 Season Of The Witch - Karen Elson featuring Donovan.wav
Pre-gap length 0:00:02.00
Peak level 95.6 %
Extraction speed 1.2 X
Track quality 100.0 %
Test CRC 42215F1A
Copy CRC 42215F1A
Accurately ripped (confidence 1) [53322054] (AR v1)
Copy OK
Track 2
Filename C:\Users\Dean Laptop\Desktop\FLAC\True Blood 3\02 Me And The Devil - Gil Scott Heron.wav
Peak level 91.1 %
Extraction speed 1.3 X
Track quality 100.0 %
Test CRC C4F1F3C0
Copy CRC C4F1F3C0
Accurately ripped (confidence 1) [DE5C1635] (AR v1)
Copy OK
Track 3
Filename C:\Users\Dean Laptop\Desktop\FLAC\True Blood 3\03 Te Ni Nee Ni Nu - Slim Harpo.wav
Peak level 96.4 %
Extraction speed 1.2 X
Track quality 100.0 %
Test CRC 1DB14C8C
Copy CRC 1DB14C8C
Accurately ripped (confidence 1) [2E677128] (AR v1)
Copy OK
Track 4
Filename C:\Users\Dean Laptop\Desktop\FLAC\True Blood 3\04 She's Not There - Neko Case and Nick Cave.wav
Peak level 93.0 %
Extraction speed 1.3 X
Track quality 100.0 %
Test CRC E4A272E1
Copy CRC E4A272E1
Accurately ripped (confidence 1) [92BE19BF] (AR v1)
Copy OK
Track 5
Filename C:\Users\Dean Laptop\Desktop\FLAC\True Blood 3\05 Hitting The Ground - PJ Harvey and Gordon Gano.wav
Peak level 92.2 %
Extraction speed 1.4 X
Track quality 100.0 %
Test CRC 35568C6B
Copy CRC 35568C6B
Accurately ripped (confidence 1) [AE32691B] (AR v1)
Copy OK
Track 6
Filename C:\Users\Dean Laptop\Desktop\FLAC\True Blood 3\06 Spellbound - Siouxsie and the Banshees.wav
Peak level 96.6 %
Extraction speed 1.5 X
Track quality 100.0 %
Test CRC 94091203
Copy CRC 94091203
Accurately ripped (confidence 1) [E599C7BA] (AR v1)
Copy OK
Track 7
Filename C:\Users\Dean Laptop\Desktop\FLAC\True Blood 3\07 9 Crimes (Demo) - Damien Rice.wav
Peak level 100.0 %
Extraction speed 1.6 X
Track quality 100.0 %
Test CRC EAC852D5
Copy CRC EAC852D5
Accurately ripped (confidence 1) [39489284] (AR v1)
Copy OK
Track 8
Filename C:\Users\Dean Laptop\Desktop\FLAC\True Blood 3\08 Cold Grey Light Of Dawn - Nick Lowe.wav
Peak level 93.9 %
Extraction speed 1.4 X
Track quality 99.9 %
Test CRC 5FA7F6AC
Copy CRC 5FA7F6AC
Accurately ripped (confidence 1) [F2E34DC1] (AR v1)
Copy OK
Track 9
Filename C:\Users\Dean Laptop\Desktop\FLAC\True Blood 3\09 Hell's Bells - Cary Ann Hearst.wav
Peak level 90.6 %
Extraction speed 1.7 X
Track quality 100.0 %
Test CRC 883D951A
Copy CRC 883D951A
Accurately ripped (confidence 1) [58E7BE6B] (AR v1)
Copy OK
Track 10
Filename C:\Users\Dean Laptop\Desktop\FLAC\True Blood 3\10 Gonna Be A Darkness - Jakob Dylan and Gary Louris.wav
Peak level 93.7 %
Extraction speed 1.7 X
Track quality 99.9 %
Test CRC D48B637A
Copy CRC D48B637A
Accurately ripped (confidence 1) [BEFC92F2] (AR v1)
Copy OK
Track 11
Filename C:\Users\Dean Laptop\Desktop\FLAC\True Blood 3\11 What You Do To Me - Blakroc.wav
Peak level 92.2 %
Extraction speed 2.0 X
Track quality 100.0 %
Test CRC BA0BC488
Copy CRC BA0BC488
Accurately ripped (confidence 1) [34566320] (AR v1)
Copy OK
Track 12
Filename C:\Users\Dean Laptop\Desktop\FLAC\True Blood 3\12 Paradise Circus - Massive Attack.wav
Peak level 95.4 %
Extraction speed 2.1 X
Track quality 100.0 %
Test CRC BA639E01
Copy CRC BA639E01
Accurately ripped (confidence 1) [2BC151B4] (AR v1)
Copy OK
Track 13
Filename C:\Users\Dean Laptop\Desktop\FLAC\True Blood 3\13 And When I Die - The Heavy.wav
Peak level 96.6 %
Extraction speed 2.2 X
Track quality 100.0 %
Test CRC 678A0A19
Copy CRC 678A0A19
Accurately ripped (confidence 1) [78FC6C81] (AR v1)
Copy OK
Track 14
Filename C:\Users\Dean Laptop\Desktop\FLAC\True Blood 3\14 Bad Things - Jace Everett.wav
Peak level 96.6 %
Extraction speed 2.0 X
Track quality 100.0 %
Test CRC D0EA43DA
Copy CRC D0EA43DA
Accurately ripped (confidence 1) [145F771A] (AR v1)
Copy OK
All tracks accurately ripped
No errors occurred
End of status report
==== Log checksum BD8B14623F9EB8C216E035E9764F90B82820F3E2E50A670DC562493148588E5E ====



REM GENRE Soundtrack
REM DATE 2011
REM DISCID CB0BBA0E
REM COMMENT "ExactAudioCopy v1.0b2"
CATALOG 0794043154218
PERFORMER "Various Artists"
TITLE "True Blood: Volume 3"
FILE "01 - Karen Elson fea. Donovan - Season Of The Witch.wav" WAVE
TRACK 01 AUDIO
TITLE "Season Of The Witch"
PERFORMER "Karen Elson fea. Donovan"
ISRC GBBKS1100216
INDEX 01 00:00:00
FILE "02 - Gil Scott Heron - Me And The Devil.wav" WAVE
TRACK 02 AUDIO
TITLE "Me And The Devil"
PERFORMER "Gil Scott Heron"
ISRC GBBKS0900546
INDEX 01 00:00:00
FILE "03 - Slim Harpo - Te Ni Nee Ni Nu.wav" WAVE
TRACK 03 AUDIO
TITLE "Te Ni Nee Ni Nu"
PERFORMER "Slim Harpo"
ISRC USUM16701012
INDEX 01 00:00:00
FILE "04 - Neko Case and Nick Cave - She's Not There.wav" WAVE
TRACK 04 AUDIO
TITLE "She's Not There"
PERFORMER "Neko Case and Nick Cave"
ISRC USNLR1100549
INDEX 01 00:00:00
FILE "05 - PJ Harvey and Gordon Gano - Hitting The Ground.wav" WAVE
TRACK 05 AUDIO
TITLE "Hitting The Ground"
PERFORMER "PJ Harvey and Gordon Gano"
INDEX 01 00:00:00
FILE "06 - Siouxsie and the Banshees - Spellbound.wav" WAVE
TRACK 06 AUDIO
TITLE "Spellbound"
PERFORMER "Siouxsie and the Banshees"
ISRC GBAKW8101063
INDEX 01 00:00:00
FILE "07 - Damien Rice - 9 Crimes (Demo).wav" WAVE
TRACK 07 AUDIO
TITLE "9 Crimes (Demo)"
PERFORMER "Damien Rice"
ISRC IEABD0600113
INDEX 01 00:00:00
FILE "08 - Nick Lowe - Cold Grey Light Of Dawn.wav" WAVE
TRACK 08 AUDIO
TITLE "Cold Grey Light Of Dawn"
PERFORMER "Nick Lowe"
ISRC USY1R1063512
INDEX 01 00:00:00
FILE "09 - Cary Ann Hearst - Hell's Bells.wav" WAVE
TRACK 09 AUDIO
TITLE "Hell's Bells"
PERFORMER "Cary Ann Hearst"
ISRC US7C30900049
INDEX 01 00:00:00
FILE "10 - Jakob Dylan and Gary Louris - Gonna Be A Darkness.wav" WAVE
TRACK 10 AUDIO
TITLE "Gonna Be A Darkness"
PERFORMER "Jakob Dylan and Gary Louris"
INDEX 01 00:00:00
FILE "11 - Blakroc - What You Do To Me.wav" WAVE
TRACK 11 AUDIO
TITLE "What You Do To Me"
PERFORMER "Blakroc"
ISRC US7FX0100010
INDEX 01 00:00:00
FILE "12 - Massive Attack - Paradise Circus.wav" WAVE
TRACK 12 AUDIO
TITLE "Paradise Circus"
PERFORMER "Massive Attack"
ISRC GBAAA0900963
INDEX 01 00:00:00
FILE "13 - The Heavy - And When I Die.wav" WAVE
TRACK 13 AUDIO
TITLE "And When I Die"
PERFORMER "The Heavy"
ISRC USNLR1100560
INDEX 01 00:00:00
FILE "14 - Jace Everett - Bad Things.wav" WAVE
TRACK 14 AUDIO
TITLE "Bad Things"
PERFORMER "Jace Everett"
INDEX 01 00:00:00




   
Торрент: Зарегистрирован [15 май 2013, 01:50] Soundtracks Скачать торрент Магнет ссылка
Скачать торрент
[ Размер 23.53 КБ / Просмотров 319 ]
Статус:
Проверен
 
.torrent скачан: 4 раз
Размер: 938.26 МБ (983 837 562 байт)
   
 
 
Цитата

Вернуться в Soundtracks

Кто сейчас на конференции

Сейчас эту тему просматривают: нет зарегистрированных пользователей и гости: 1