Хроники Шаннары / The Shannara Chronicles / Сезон: 2 / Серии: 1-10 из 10 (Брэд Тернер, Джонатан Либес) [2017, США, фантастика, фэнтези, приключения, WEB-DL 1080p] MVO (NewStudio, LostFilm) + Original + Subs (Eng)

 Статистика раздачи 
Размер: 17.56 ГБ   |  Зарегистрирован: 20 янв 2018, 19:13   |   .torrent скачан: 134 раз
Сидеров: 4  [ 0 байт/сек ]     Личеров: 4  [ 0 байт/сек ]  
  
Аватара пользователя
 
Раздал: 70.17 ГБ
Скачал: 8.1 ГБ
Ратио: 9.632
Сообщения: 6550
Стаж: 7 лет 11 месяцев 19 дней


Хроники Шаннары / The Shannara Chronicles



Год выпуска: 2017
Страна: США | USA
Жанр: фантастика, фэнтези, приключения
Продолжительность: ~00:43:00
Перевод#1: Профессиональный (многоголосый закадровый) | NewStudio
Перевод#2: Профессиональный (многоголосый закадровый) | LostFilm
Субтитры: есть
Режиссер: Брэд Тернер, Джонатан Либесман, Джеймс Маршалл
В ролях: Ивана Бакеро, Дэниэл МакФерсон, Джон Рис-Дэвис, Маркус Ванко, Брук Уильямс, Ману Беннетт, Остин Роберт Батлер, Поппи Дрейтон, Аарон Якубенко и др.
Описание: События сериала происходят в далёком будущем. Войны разделили Северную Америку на 4 части. На какой-то из них обитают эльфы, на иной — люди, на третьей — тролли и на четвёртой — дворфы.
Основными персонажами сериала окажутся отпрыски древнего рода эльфов — Шаннара. Именно от них будет зависеть будущая судьба планеты…
IMDB: 7.4/10 (46,348 votes)
КиноПоиск: 6.9/10 (7,695 голосов)

РЕЛИЗ от sergiy_psp
Добавлено озвучивание от NewStudio, LostFilm. Финал сезона!
Всем приятного просмотра! Работа со звуком: sergiy_psp. Нет Рекламы!

Источник: iTunes WEB-DL
Качество видео: WEB-DL 1080p
Формат: MKV
Кодек: H.264 @ AC3
Видео: 1916x1076 at 23.976 fps, MPEG-4 AVC, ~5100 kbps avg, 0.218 bit/pixel
Аудио Rus: 48 kHz, AC3, 2/0 (L,R) ch, ~192.00 kbps avg |Многоголосый закадровый, NewStudio|
Аудио Rus: 48 kHz, AC3, 2/0 (L,R) ch, ~384.00 kbps avg |Многоголосый закадровый, LostFilm|
Аудио Eng: 48 kHz, AC3, 2/0 (L,R) ch, ~192.00 kbps avg
Субтитры: Russian (forced), English
✘Семпл✘
✘Все раздачи сериала✘
Код:
Код: Выделить всё
01. - 11.10.2017 - Друид / Druid
02. - 18.10.2017 - Призрак / Wraith
03. - 25.10.2017 - Греймарк / Graymark
04. - 01.11.2017 - Пожиратель / Dweller
05. - 08.11.2017 - Паранор / Paranor
06. - 08.11.2017 - Кримсон / Crimson
07. - 15.11.2017 - Чародей / Warlock
08. - 15.11.2017 - Эмберли / Amberle
09. - 22.11.2017 - Дикие Дебри / Wilderun
10. - 22.11.2017 - Кровь / Blood


Код:
Код: Выделить всё
Общее
Уникальный идентификатор                 : 189318677022601259924274080795177785046 (0x8E6D736EE6941DA3BC92CB7A862416D6)
Полное имя                               : The.Shannara.Chronicles.S02.1080p.WEB-DL.2xRus.Eng.sergiy_psp\The.Shannara.Chronicles.S02E01.1080p.WEB-DL.2xRus.Eng.sergiy_psp.mkv
Формат                                   : Matroska
Версия формата                           : Version 4 / Version 2
Размер файла                             : 1,81 Гбайт
Продолжительность                        : 43 м. 31 с.
Общий поток                              : 5950 Кбит/сек
Дата кодирования                         : UTC 2017-10-29 10:53:40
Программа кодирования                    : mkvmerge v17.0.0 ('Be Ur Friend') 64-bit
Библиотека кодирования                   : libebml v1.3.5 + libmatroska v1.4.8
Видео
Идентификатор                            : 1
Формат                                   : AVC
Формат/Информация                        : Advanced Video Codec
Профиль формата                          : High@L4
Настройки формата                        : CABAC / 4 Ref Frames
Параметр CABAC формата                   : Да
Параметр RefFrames формата               : 4 кадра
Идентификатор кодека                     : V_MPEG4/ISO/AVC
Продолжительность                        : 43 м. 31 с.
Битрейт                                  : 5180 Кбит/сек
Ширина                                   : 1916 пикселей
Высота                                   : 1076 пикселей
Соотношение сторон                       : 16:9
Режим частоты кадров                     : Постоянный
Частота кадров                           : 23,976 кадра/сек
Цветовое пространство                    : YUV
Субдискретизация насыщенности            : 4:2:0
Битовая глубина                          : 8 бит
Тип развёртки                            : Прогрессивная
Бит/(Пиксели*Кадры)                      : 0.105
Размер потока                            : 1,57 Гбайт (87%)
Заголовок                                : The.Shannara.Chronicles.S02E01.1080p.WEB-DL.2xRus.Eng.sergiy_psp
Язык                                     : English
Default                                  : Да
Forced                                   : Нет
Цветовой диапазон                        : Limited
Основные цвета                           : BT.709
Характеристики трансфера                 : BT.709
Коэффициенты матрицы                     : BT.709
Аудио #1
Идентификатор                            : 2
Формат                                   : AC-3
Формат/Информация                        : Audio Coding 3
Параметр Endianness формата              : Big
Идентификатор кодека                     : A_AC3
Продолжительность                        : 43 м. 31 с.
Вид битрейта                             : Постоянный
Битрейт                                  : 192 Кбит/сек
Каналы                                   : 2 канала
Расположение каналов                     : Front: L R
Частота                                  : 48,0 КГц
Частота кадров                           : 31,250 кадров/сек (1536 SPF)
Битовая глубина                          : 16 бит
Метод сжатия                             : С потерями
Размер потока                            : 59,8 Мбайт (3%)
Заголовок                                : Newstudio 2.0
Язык                                     : Russian
ServiceKind/String                       : Complete Main
Default                                  : Да
Forced                                   : Нет
Аудио #2
Идентификатор                            : 3
Формат                                   : AC-3
Формат/Информация                        : Audio Coding 3
Параметр Endianness формата              : Big
Идентификатор кодека                     : A_AC3
Продолжительность                        : 43 м. 31 с.
Вид битрейта                             : Постоянный
Битрейт                                  : 384 Кбит/сек
Каналы                                   : 2 канала
Расположение каналов                     : Front: L R
Частота                                  : 48,0 КГц
Частота кадров                           : 31,250 кадров/сек (1536 SPF)
Битовая глубина                          : 16 бит
Метод сжатия                             : С потерями
Размер потока                            : 120 Мбайт (6%)
Заголовок                                : LostFilm 2.0
Язык                                     : Russian
ServiceKind/String                       : Complete Main
Default                                  : Нет
Forced                                   : Нет
Аудио #3
Идентификатор                            : 4
Формат                                   : AC-3
Формат/Информация                        : Audio Coding 3
Параметр Endianness формата              : Big
Идентификатор кодека                     : A_AC3
Продолжительность                        : 43 м. 31 с.
Вид битрейта                             : Постоянный
Битрейт                                  : 192 Кбит/сек
Каналы                                   : 2 канала
Расположение каналов                     : Front: L R
Частота                                  : 48,0 КГц
Частота кадров                           : 31,250 кадров/сек (1536 SPF)
Битовая глубина                          : 16 бит
Метод сжатия                             : С потерями
Размер потока                            : 59,8 Мбайт (3%)
Заголовок                                : Original 2.0
Язык                                     : English
ServiceKind/String                       : Complete Main
Default                                  : Нет
Forced                                   : Нет
Текст
Идентификатор                            : 5
Формат                                   : UTF-8
Идентификатор кодека                     : S_TEXT/UTF8
Идентификатор кодека/Информация          : UTF-8 Plain Text
Продолжительность                        : 42 м. 39 с.
Битрейт                                  : 43 бит/сек
ElementCount                             : 487
Размер потока                            : 13,5 Кбайт (0%)
Заголовок                                : eng sub (full)
Язык                                     : English
Default                                  : Нет
Forced                                   : Нет







✘Внимание✘


Внимание! Раздача ведётся путём добавления новых серий; при каждом добавлении создётся новый торрент. Чтобы начать докачку новой серии, пользователям необходимо сделать следующее:
(1) остановить скачивание,
(2) удалить старый торрент у себя из клиента (старые серии удалять не надо),
(3) скачать новый торрент и запустить его у себя в клиенте вместо старого, при этом указать клиенту путь в старую папку куда и должно происходить скачивание новых серий.
Ваш клиент при этом должен произвести хеширование (проверку) старой папки (если не производит сам - помогите ему сделать это), и будет докачивать только те серии которых у вас ещё нет. Старые серии при этом не удаляются, а продолжают раздаваться!
Eсли вы уже удалили старые серии, то предотвратить повторную закачку старых серий можно, отжав галочку в соответсвующих местах при запуске нового торрента.
Не забывайте говорить Спасибо. Не уходите с раздачи!   
Торрент: Зарегистрирован [20 янв 2018, 19:13] Для скачивания .torrent
необходима регистрация
Или скачать с помощью
MediaGet
Статус:
Проверен
 
.torrent скачан: 134 раз
Размер: 17.56 ГБ (18 852 369 932 байт)
   Стать Автором раздачи
   
Цитата
  • Похожие торренты
    Ответы
    Просмотры
    Последнее сообщение

Вернуться в Хроники Шаннары / The Shannara Chronicles

Кто сейчас на конференции

Сейчас эту тему просматривают: нет зарегистрированных пользователей и гости: 1