Чемпионат Мира 2018 / FIFA World Cup 2018 / Группа А. 1-й тур. Россия - Саудовская Аравия (14.06.2018) HDTVRip [H.264/720p-LQ] [hand made 50fps]

 Статистика раздачи 
Размер: 4.37 ГБ   |  Зарегистрирован: 14 июн 2018, 22:09   |   .torrent скачан: 13 раз
Сидеров: 59  [ 0 байт/сек ]     Личеров: 7  [ 0 байт/сек ]  
  
Аватара пользователя
 
Раздал: 1.08 ТБ
Скачал: 3.81 ГБ
Ратио: 289.979
Сообщения: 97903
Стаж: 2 года 1 месяц 15 дней

Чемпионат Мира 2018 / FIFA World Cup 2018 / Группа А. 1-й тур / Россия - Саудовская Аравия (14.06.2018) HDTVRip [H.264/720p-LQ]

Телекомпания: 1 канал
Жанр: Спорт, футбол

Комментарии: Леонид Слуцкий и Александр Елагин
Стадион: Лужники (Москва, Россия) , 78 011 зрителей
Главный судья: Нестор Питана (Корпус, Мисьонес, Аргентина)

Описание:
Стартовый матч чемпионата мира 2018

Релиз: RGfootball

Продолжительность: 02:22:21
Качество видео: HDTVRip
Язык озвучки: Русский
Субтитры: отсутствуют

Видео: AVC/H.264, 1280x720 (16:9), ~4048 Кбит/сек
Аудио 1: AC3, 2 ch, 128 Кбит/сек
Аудио 2: AC3, 6 ch, 128 Кбит/сек
Код: Выделить всё
Общее
Уникальный идентификатор                 : 24335708235592617585780247220676160815 (0x124EE30D3F2D43015687F601F4876D2F)
Полное имя                               : Z:\Downloads\Чемпионат мира 2018. Группа A. 1-й тур. Россия - Саудовская Аравия HDTVRip 720p.mkv
Формат                                   : Matroska
Версия формата                           : Version 2
Размер файла                             : 4,37 Гбайт
Продолжительность                        : 2 ч. 22 м.
Общий поток                              : 4392 Кбит/сек
Программа кодирования                    : Lavf54.63.104
Библиотека кодирования                   : Lavf54.63.104

Видео
Идентификатор                            : 1
Формат                                   : AVC
Формат/Информация                        : Advanced Video Codec
Профиль формата                          : [email protected]
Параметр CABAC формата                   : Да
Параметр ReFrames формата                : 8 кадров
Параметр GOP формата                     : M=2, N=24
Идентификатор кодека                     : V_MPEG4/ISO/AVC
Продолжительность                        : 2 ч. 22 м.
Битрейт                                  : 4048 Кбит/сек
Ширина                                   : 1280 пикселей
Высота                                   : 720 пикселей
Соотношение сторон                       : 16:9
Режим частоты кадров                     : Постоянный
Частота кадров                           : 50,000 кадров/сек
Цветовое пространство                    : YUV
Субдискретизация насыщенности            : 4:2:0
Битовая глубина                          : 8 бит
Тип развёртки                            : Прогрессивная
Бит/(Пиксели*Кадры)                      : 0.088
Размер потока                            : 4,03 Гбайт (92%)
Default                                  : Нет
Forced                                   : Нет

Аудио #1
Идентификатор                            : 2
Формат                                   : AC-3
Формат/Информация                        : Audio Coding 3
Параметр Endianness формата              : Big
Идентификатор кодека                     : A_AC3
Продолжительность                        : 2 ч. 22 м.
Вид битрейта                             : Постоянный
Битрейт                                  : 128 Кбит/сек
Каналы                                   : 2 канала
Расположение каналов                     : Front: L R
Частота                                  : 48,0 КГц
Частота кадров                           : 31,250 кадров/сек (1536 spf)
Битовая глубина                          : 16 бит
Метод сжатия                             : С потерями
Размер потока                            : 130 Мбайт (3%)
Язык                                     : Russian
ServiceKind/String                       : Complete Main
Default                                  : Да
Forced                                   : Нет

Аудио #2
Идентификатор                            : 3
Формат                                   : AC-3
Формат/Информация                        : Audio Coding 3
Параметр Endianness формата              : Big
Идентификатор кодека                     : A_AC3
Продолжительность                        : 2 ч. 22 м.
Вид битрейта                             : Постоянный
Битрейт                                  : 128 Кбит/сек
Каналы                                   : 6 каналов
Расположение каналов                     : Front: L C R, Side: L R, LFE
Частота                                  : 48,0 КГц
Частота кадров                           : 31,250 кадров/сек (1536 spf)
Битовая глубина                          : 16 бит
Метод сжатия                             : С потерями
Размер потока                            : 130 Мбайт (3%)
Язык                                     : Russian
ServiceKind/String                       : Complete Main
Default                                  : Нет
Forced                                   : Нет

Скриншоты:



Время раздачи: 24/7 (до появления первых 3-5 скачавших)
   
Торрент: Зарегистрирован [14 июн 2018, 22:09] Скачать торрент Магнет ссылка
Скачать торрент
[ Размер 22.87 КБ / Просмотров 44 ]
Статус:
Проверен
 
.torrent скачан: 13 раз
Размер: 4.37 ГБ (4 688 942 957 байт)
   Стать Автором раздачи
 
 
Цитата
  • Похожие торренты
    Ответы
    Просмотры
    Последнее сообщение

Вернуться в Чемпионат Мира 2018 (групповой этап финального турнира)

Кто сейчас на конференции

Сейчас эту тему просматривают: нет зарегистрированных пользователей и гости: 1