Sasha - Fabric 99 (2018) [FLAC|Lossless|tracks+.cue] <Techno, Ambient, Leftfield, Deep House, Tech House, Electro>

 Статистика раздачи 
Размер: 468.01 МБ   |  Зарегистрирован: 13 июн 2018, 07:01   |   .torrent скачан: 6 раз
Сидеров: 4  [ 0 байт/сек ]     Личеров: 3  [ 0 байт/сек ]  
  
Аватара пользователя
 
Раздал: 3.16 ТБ
Скачал: 38.27 ГБ
Ратио: 84.648
Сообщения: 192159
Стаж: 1 год 7 месяцев 1 день

Sasha
Fabric 99
Жанр: Techno, Ambient, Leftfield, Deep House, Tech House, Electro
Издание: Fabric - fabric197
Продолжительность: 01:13:34

Кодек: FLAC
Битрейт: Lossless
Тип рипа: tracks+.cue

Треклист:

01. Agnes Obel - Stretch Your Eyes (Ambient Acapella / Quiet Village Remix) (05:17)
02. Marbert Rocel - I Wanna (Heitzberg Theorem Club Edit) (03:22)
03. Kora (CA) - OVO (02:43)
04. Tom Flynn - Cup Of Joe (02:19)
05. Indigo / Close Feat. Joe Dukie - Sunrise / My Way (03:48)
06. DJ Hell - Guede (Joyce Muniz Terror + Natur Remix) (04:31)
07. Ghosts On Tape - Nature's Law (Jus-Ed Remix) (01:17)
08. Whitesquare - Abraxas (03:14)
09. Crowdpleaser - After Rhone 2013 (04:12)
10. Exercise One & Mathew Jonson - Lost Forever In A Happy Crowd (06:50)
11. Sasha - Smoke Monk (Fabric Mix) (06:58)
12. Objekt - Needle & Thread (06:43)
13. Jono Ma & Dreems - A Love Trance Mission From NK to 7S (04:23)
14. Efdemin - Acid Bells (DJ Koze Edit) (01:37)
15. Javier Logares & Kaarel / George Fitzgerald - La Cuarta Galaxia (Tiefschwarz Remix) / Echo Forgets (Sasha's Moog-Apella) (04:58)
16. Carl Craig Feat Francesco Tristano, Les Siecles & Francois Xavier-Roth - At Les (Antigone Mix) (04:23)
17. Baile - Amae Feat. Felicia Douglass (Sasha Fabric1999 Mix) (06:59)
Код: Выделить всё
Exact Audio Copy V1.3 from 2. September 2016

EAC extraction logfile from 12. June 2018, 13:44

Sasha / Sasha - Fabric 99

Used drive  : PIONEER BD-RW   BDR-209M   Adapter: 1  ID: 0

Read mode               : Secure
Utilize accurate stream : Yes
Defeat audio cache      : Yes
Make use of C2 pointers : No

Read offset correction                      : 667
Overread into Lead-In and Lead-Out          : No
Fill up missing offset samples with silence : Yes
Delete leading and trailing silent blocks   : No
Null samples used in CRC calculations       : Yes
Used interface                              : Native Win32 interface for Win NT & 2000
Gap handling                                : Appended to previous track

Used output format              : User Defined Encoder
Selected bitrate                : 1024 kBit/s
Quality                         : High
Add ID3 tag                     : No
Command line compressor         : C:\Program Files (x86)\Exact Audio Copy\Flac\flac.exe
Additional command line options : -8 -e -p -V -T "ARTIST=%artist%" -T "TITLE=%title%" -T "ALBUM=%albumtitle%" -T "DATE=%year%" -T "TRACKNUMBER=%tracknr%" -T "GENRE=%genre%" -T "PERFORMER=%albuminterpret%" -T "COMPOSER=%composer%" %haslyrics%--tag-from-file=LYRICS="%lyricsfile%"%haslyrics% -T "ALBUMARTIST=%albumartist%" -T "DISCNUMBER=%cdnumber%" -T "TOTALDISCS=%totalcds%" -T "TOTALTRACKS=%numtracks%" -T "COMMENT=%comment%" %source% -o %dest%

TOC of the extracted CD

     Track |   Start  |  Length  | Start sector | End sector
    ---------------------------------------------------------
        1  |  0:00.00 |  5:17.28 |         0    |    23802
        2  |  5:17.28 |  3:21.42 |     23803    |    38919
        3  |  8:38.70 |  2:42.59 |     38920    |    51128
        4  | 11:21.54 |  2:19.27 |     51129    |    61580
        5  | 13:41.06 |  3:48.29 |     61581    |    78709
        6  | 17:29.35 |  4:30.72 |     78710    |    99031
        7  | 22:00.32 |  1:17.31 |     99032    |   104837
        8  | 23:17.63 |  3:13.42 |    104838    |   119354
        9  | 26:31.30 |  4:11.46 |    119355    |   138225
       10  | 30:43.01 |  6:50.24 |    138226    |   168999
       11  | 37:33.25 |  6:58.05 |    169000    |   200354
       12  | 44:31.30 |  6:42.44 |    200355    |   230548
       13  | 51:13.74 |  4:23.17 |    230549    |   250290
       14  | 55:37.16 |  1:36.55 |    250291    |   257545
       15  | 57:13.71 |  4:58.07 |    257546    |   279902
       16  | 62:12.03 |  4:23.17 |    279903    |   299644
       17  | 66:35.20 |  6:58.45 |    299645    |   331039

Track  1

     Filename D:\Music\2018\Sasha - Fabric 99 [FLAC]\01 - Agnes Obel - Stretch Your Eyes (Ambient Acapella , Quiet Village Remix).wav

     Pre-gap length  0:00:02.00

     Peak level 98.9 %
     Extraction speed 4.8 X
     Track quality 99.9 %
     Test CRC DFD0E93D
     Copy CRC DFD0E93D
     Track not present in AccurateRip database
     Copy OK

Track  2

     Filename D:\Music\2018\Sasha - Fabric 99 [FLAC]\02 - Marbert Rocel - I Wanna (Heitzberg Theorem Club Edit).wav

     Peak level 98.9 %
     Extraction speed 5.4 X
     Track quality 100.0 %
     Test CRC 0279FCD1
     Copy CRC 0279FCD1
     Track not present in AccurateRip database
     Copy OK

Track  3

     Filename D:\Music\2018\Sasha - Fabric 99 [FLAC]\03 - Kora (CA) - OVO.wav

     Peak level 98.9 %
     Extraction speed 5.5 X
     Track quality 100.0 %
     Test CRC 911774D1
     Copy CRC 911774D1
     Track not present in AccurateRip database
     Copy OK

Track  4

     Filename D:\Music\2018\Sasha - Fabric 99 [FLAC]\04 - Tom Flynn - Cup Of Joe.wav

     Peak level 98.9 %
     Extraction speed 5.6 X
     Track quality 100.0 %
     Test CRC A79801FD
     Copy CRC A79801FD
     Track not present in AccurateRip database
     Copy OK

Track  5

     Filename D:\Music\2018\Sasha - Fabric 99 [FLAC]\05 - Indigo , Close Feat. Joe Dukie - Sunrise , My Way.wav

     Peak level 98.9 %
     Extraction speed 5.6 X
     Track quality 99.9 %
     Test CRC 8A44B68A
     Copy CRC 8A44B68A
     Track not present in AccurateRip database
     Copy OK

Track  6

     Filename D:\Music\2018\Sasha - Fabric 99 [FLAC]\06 - DJ Hell - Guede (Joyce Muniz Terror + Natur Remix).wav

     Peak level 98.9 %
     Extraction speed 6.9 X
     Track quality 100.0 %
     Test CRC E95E0943
     Copy CRC E95E0943
     Track not present in AccurateRip database
     Copy OK

Track  7

     Filename D:\Music\2018\Sasha - Fabric 99 [FLAC]\07 - Ghosts On Tape - Nature's Law (Jus-Ed Remix).wav

     Peak level 98.9 %
     Extraction speed 5.4 X
     Track quality 100.0 %
     Test CRC B2CDBBAE
     Copy CRC B2CDBBAE
     Track not present in AccurateRip database
     Copy OK

Track  8

     Filename D:\Music\2018\Sasha - Fabric 99 [FLAC]\08 - Whitesquare - Abraxas.wav

     Peak level 98.9 %
     Extraction speed 6.0 X
     Track quality 99.9 %
     Test CRC E1918E0A
     Copy CRC E1918E0A
     Track not present in AccurateRip database
     Copy OK

Track  9

     Filename D:\Music\2018\Sasha - Fabric 99 [FLAC]\09 - Crowdpleaser - After Rhône 2013.wav

     Peak level 98.9 %
     Extraction speed 7.5 X
     Track quality 100.0 %
     Test CRC 052F1D5B
     Copy CRC 052F1D5B
     Track not present in AccurateRip database
     Copy OK

Track 10

     Filename D:\Music\2018\Sasha - Fabric 99 [FLAC]\10 - Exercise One & Mathew Jonson - Lost Forever In A Happy Crowd.wav

     Peak level 98.9 %
     Extraction speed 7.6 X
     Track quality 99.9 %
     Test CRC 578C79D8
     Copy CRC 578C79D8
     Track not present in AccurateRip database
     Copy OK

Track 11

     Filename D:\Music\2018\Sasha - Fabric 99 [FLAC]\11 - Sasha - Smoke Monk (Fabric Mix).wav

     Peak level 98.9 %
     Extraction speed 8.6 X
     Track quality 100.0 %
     Test CRC FCFDB637
     Copy CRC FCFDB637
     Track not present in AccurateRip database
     Copy OK

Track 12

     Filename D:\Music\2018\Sasha - Fabric 99 [FLAC]\12 - Objekt - Needle & Thread.wav

     Peak level 98.9 %
     Extraction speed 9.0 X
     Track quality 100.0 %
     Test CRC 87B5CDFD
     Copy CRC 87B5CDFD
     Track not present in AccurateRip database
     Copy OK

Track 13

     Filename D:\Music\2018\Sasha - Fabric 99 [FLAC]\13 - Jono Ma & Dreems - A Love Trance Mission From NK to 7S.wav

     Peak level 98.9 %
     Extraction speed 8.9 X
     Track quality 100.0 %
     Test CRC 1E7B1432
     Copy CRC 1E7B1432
     Track not present in AccurateRip database
     Copy OK

Track 14

     Filename D:\Music\2018\Sasha - Fabric 99 [FLAC]\14 - Efdemin - Acid Bells (DJ Koze Edit).wav

     Peak level 98.9 %
     Extraction speed 7.4 X
     Track quality 100.0 %
     Test CRC 06DF53C7
     Copy CRC 06DF53C7
     Track not present in AccurateRip database
     Copy OK

Track 15

     Filename D:\Music\2018\Sasha - Fabric 99 [FLAC]\15 - Javier Logares & Kaarel , George Fitzgerald - La Cuarta Galaxia (Tiefschwarz Remix) , Echo Forgets (Sasha's Moog-Apella).wav

     Peak level 98.9 %
     Extraction speed 9.4 X
     Track quality 100.0 %
     Test CRC 7334D548
     Copy CRC 7334D548
     Track not present in AccurateRip database
     Copy OK

Track 16

     Filename D:\Music\2018\Sasha - Fabric 99 [FLAC]\16 - Carl Craig Feat Francesco Tristano, Les Siècles & François Xavier-Roth - At Les (Antigone Mix).wav

     Peak level 98.9 %
     Extraction speed 9.5 X
     Track quality 100.0 %
     Test CRC 70F65982
     Copy CRC 70F65982
     Track not present in AccurateRip database
     Copy OK

Track 17

     Filename D:\Music\2018\Sasha - Fabric 99 [FLAC]\17 - Baile - Amae Feat. Felicia Douglass (Sasha Fabric1999 Mix).wav

     Peak level 98.9 %
     Extraction speed 10.3 X
     Track quality 100.0 %
     Test CRC 2E31B075
     Copy CRC 2E31B075
     Track not present in AccurateRip database
     Copy OK

None of the tracks are present in the AccurateRip database

No errors occurred

End of status report

---- CUETools DB Plugin V2.1.6

[CTDB TOCID: 7XbCE.ydGXOhewvnmGJcTe4fkM4-] disk not present in database
Submit result: 7XbCE.ydGXOhewvnmGJcTe4fkM4- has been uploaded

==== Log checksum 78F911B82A60B368C6F258EEC46B87BF7CF8A7962E002AD27028EAD83C25BAA7 ====
Код: Выделить всё
REM GENRE Electronic
REM DATE 2018
REM DISCID FA113D11
REM COMMENT "ExactAudioCopy v1.3"
PERFORMER "Sasha"
TITLE "Sasha - Fabric 99"
REM COMPOSER ""
FILE "01 - Agnes Obel - Stretch Your Eyes (Ambient Acapella , Quiet Village Remix).wav" WAVE
  TRACK 01 AUDIO
    TITLE "Stretch Your Eyes (Ambient Acapella / Quiet Village Remix)"
    PERFORMER "Agnes Obel"
    REM COMPOSER ""
    ISRC GBEXH1800120
    INDEX 01 00:00:00
FILE "02 - Marbert Rocel - I Wanna (Heitzberg Theorem Club Edit).wav" WAVE
  TRACK 02 AUDIO
    TITLE "I Wanna (Heitzberg Theorem Club Edit)"
    PERFORMER "Marbert Rocel"
    REM COMPOSER ""
    ISRC DEM091300231
    INDEX 01 00:00:00
FILE "03 - Kora (CA) - OVO.wav" WAVE
  TRACK 03 AUDIO
    TITLE "OVO"
    PERFORMER "Kora (CA)"
    REM COMPOSER ""
    INDEX 01 00:00:00
FILE "04 - Tom Flynn - Cup Of Joe.wav" WAVE
  TRACK 04 AUDIO
    TITLE "Cup Of Joe"
    PERFORMER "Tom Flynn"
    REM COMPOSER ""
    ISRC GBKQU1800744
    INDEX 01 00:00:00
FILE "05 - Indigo , Close Feat. Joe Dukie - Sunrise , My Way.wav" WAVE
  TRACK 05 AUDIO
    TITLE "Sunrise / My Way"
    PERFORMER "Indigo / Close Feat. Joe Dukie"
    REM COMPOSER ""
    ISRC GBEXH1800121
    INDEX 01 00:00:00
FILE "06 - DJ Hell - Guede (Joyce Muniz Terror + Natur Remix).wav" WAVE
  TRACK 06 AUDIO
    TITLE "Guede (Joyce Muniz Terror + Natur Remix)"
    PERFORMER "DJ Hell"
    REM COMPOSER ""
    ISRC GBEXH1800117
    INDEX 01 00:00:00
FILE "07 - Ghosts On Tape - Nature's Law (Jus-Ed Remix).wav" WAVE
  TRACK 07 AUDIO
    TITLE "Nature's Law (Jus-Ed Remix)"
    PERFORMER "Ghosts On Tape"
    REM COMPOSER ""
    ISRC GBQLP1200214
    INDEX 01 00:00:00
FILE "08 - Whitesquare - Abraxas.wav" WAVE
  TRACK 08 AUDIO
    TITLE "Abraxas"
    PERFORMER "Whitesquare"
    REM COMPOSER ""
    ISRC GBEWY1500028
    INDEX 01 00:00:00
FILE "09 - Crowdpleaser - After Rhфne 2013.wav" WAVE
  TRACK 09 AUDIO
    TITLE "After Rhфne 2013"
    PERFORMER "Crowdpleaser"
    REM COMPOSER ""
    INDEX 01 00:00:00
FILE "10 - Exercise One & Mathew Jonson - Lost Forever In A Happy Crowd.wav" WAVE
  TRACK 10 AUDIO
    TITLE "Lost Forever In A Happy Crowd"
    PERFORMER "Exercise One & Mathew Jonson"
    REM COMPOSER ""
    ISRC GBEXH1800118
    INDEX 01 00:00:00
FILE "11 - Sasha - Smoke Monk (Fabric Mix).wav" WAVE
  TRACK 11 AUDIO
    TITLE "Smoke Monk (Fabric Mix)"
    PERFORMER "Sasha"
    REM COMPOSER ""
    ISRC GBJX31800001
    INDEX 01 00:00:00
FILE "12 - Objekt - Needle & Thread.wav" WAVE
  TRACK 12 AUDIO
    TITLE "Needle & Thread"
    PERFORMER "Objekt"
    REM COMPOSER ""
    ISRC GBEXH1800119
    INDEX 01 00:00:00
FILE "13 - Jono Ma & Dreems - A Love Trance Mission From NK to 7S.wav" WAVE
  TRACK 13 AUDIO
    TITLE "A Love Trance Mission From NK to 7S"
    PERFORMER "Jono Ma & Dreems"
    REM COMPOSER ""
    ISRC DEU671800018
    INDEX 01 00:00:00
FILE "14 - Efdemin - Acid Bells (DJ Koze Edit).wav" WAVE
  TRACK 14 AUDIO
    TITLE "Acid Bells (DJ Koze Edit)"
    PERFORMER "Efdemin"
    REM COMPOSER ""
    ISRC BEN581700959
    INDEX 01 00:00:00
FILE "15 - Javier Logares & Kaarel , George Fitzgerald - La Cuarta Galaxia (Tiefschwarz Remix) , Echo Forgets (Sasha's Moog-Apella).wav" WAVE
  TRACK 15 AUDIO
    TITLE "La Cuarta Galaxia (Tiefschwarz Remix) / Echo Forgets (Sasha's Moog-Apella)"
    PERFORMER "Javier Logares & Kaarel / George Fitzgerald"
    REM COMPOSER ""
    ISRC GBEXH1800122
    INDEX 01 00:00:00
FILE "16 - Carl Craig Feat Francesco Tristano, Les Siиcles & Franзois Xavier-Roth - At Les (Antigone Mix).wav" WAVE
  TRACK 16 AUDIO
    TITLE "At Les (Antigone Mix)"
    PERFORMER "Carl Craig Feat Francesco Tristano, Les Siиcles & Franзois Xavier-Roth"
    REM COMPOSER ""
    ISRC FRT091800000
    INDEX 01 00:00:00
FILE "17 - Baile - Amae Feat. Felicia Douglass (Sasha Fabric1999 Mix).wav" WAVE
  TRACK 17 AUDIO
    TITLE "Amae Feat. Felicia Douglass (Sasha Fabric1999 Mix)"
    PERFORMER "Baile"
    REM COMPOSER ""
    ISRC GBJX31800002
    INDEX 01 00:00:00
Время раздачи: 12/7
Не забывайте говорить Спасибо. Не уходите с раздачи!   
Торрент: Зарегистрирован [13 июн 2018, 07:01] Для скачивания .torrent
необходима регистрация
Или скачать с помощью
MediaGet
Статус:
Проверен
 
.torrent скачан: 6 раз
Размер: 468.01 МБ (490 746 197 байт)
   Стать Автором раздачи
   
Цитата
  • Похожие торренты
    Ответы
    Просмотры
    Последнее сообщение

Вернуться в Electronic

Кто сейчас на конференции

Сейчас эту тему просматривают: нет зарегистрированных пользователей и гости: 1