Zazie - Rodeo Tour (2005) [2008, Франция, Pop Rock, Blu-ray]

 Статистика раздачи 
Размер: 22.13 ГБ   |  Зарегистрирован: 09 мар 2013, 11:10   |   .torrent скачан: 0 раз
Сидеров: 0  [ 0 байт/сек ]     Личеров: 71  [ 0 байт/сек ]  
  
Аватара пользователя
Главный редактор
Главный редактор
Автор темы
Раздал: 10.09 ТБ
Скачал: 1.76 ТБ
Ратио: 6.147
Сообщения: 3344
Стаж: 6 лет 2 месяца 28 дней
Откуда: Санкт-Петербург

Zazie - Rodeo Tour (2005)


Оригинальное название: Zazie - Rodeo Tour
Дата выхода: 2008
Жанр: Pop Rock
Исполнители:
Zazie
Bass, Acoustic Guitar – Nicolas Fiszman
Drums, Sampler [Samples] – Matthieu Rabatet
Electric Piano [Cp 70] – Jean-Pierre Pilot, Nicolas Fiszman
Guitar – Philippe Paradis
Kalimba – Jean-Pierre Pilot
Keyboards – Jean-Pierre Pilot, Philippe Paradis
Programmed By – Jean-Pierre Pilot, Philippe Paradis
Страна: Франция
Лейбл: Mercury
Продолжительность: 01:18:11+бонус
Описание:Zazie - Изабель Мари-Анна де Трюши де Варенн, французкая певица, автор и исполнитель. В 2004, году Зази выпускает пятый по счёту студийный альбом «Родео» («Rodéo») и через год, в 2005, отправляется в гастрольный «Rodéo Tour». Лейбл "Mercury Records" в 2008 году выпустили концертный Blu-Ray, записан был 9 и 10 сентября 2005 году в Forest National, в Брюсселе, выбраны 17 композиций.
Качество: Blu-ray
Формат аудио: DTS-HD
Формат видео: BDMV
Видео: MPEG4 Video (H264) 1920x1080 25fps 33.2Mbps
Аудио 1: French DTS-HD MA 5.1 (48 kHz / 4935 kbps / 24-bit)
Аудио 2: French DTS-HD MA 2.0 (48 kHz / 2319 kbps / 24-bit)
01. J’aime, j’aime pas
02. Toc Toc Toc
03. Tout le monde
04. La Dolce Vita
05. Homme sweet homme
06. Rodeo
07. Excuse-Moi
08. Lola Majeure
09. Oui
10. Slow
11. Cyber
12. Rue de la Paix
13. Un point c’est toi
14. J’arrive
15. Adam et Yves
16. Larsen
17. Zen
Bonus
- Sur Un Air De Vacances 34:00
- Une Journee (Pas) Ordinaire 17:00

Disc Title: Zazie - Rodeo Tour (2005) Blu-ray
Disc Size: 23 759 267 648 bytes
Protection: AACS
BD-Java: No
BDInfo: 0.5.6
Notes:
BDINFO HOME:
Cinema Squid
http://www.cinemasquid.com/blu-ray/tools/bdinfo
INCLUDES FORUMS REPORT FOR:
AVS Forum Blu-ray Audio and Video Specifications Thread
http://www.avsforum.com/avs-vb/showthread.php?t=1155731
WARNING: Report is incomplete because: Scan has not been run.
********************
PLAYLIST: 00003.MPLS
********************
<--- BEGIN FORUMS PASTE --->

Код:
Total Video
Title Codec Length Movie Size Disc Size Bitrate Bitrate Main Audio Track Secondary Audio Track
----- ------ ------- -------------- -------------- ------- ------- ------------------ ---------------------
00003.MPLS AVC 1:18:11 0 23 759 267 648 0,00 0,00 DTS-HD Master 2.0 (48kHz/24-bit) DTS-HD Master 5.1 (48kHz/24-bit)
Код:
DISC INFO:
Disc Title: Zazie - Rodeo Tour (2005) Blu-ray
Disc Size: 23 759 267 648 bytes
Protection: AACS
BD-Java: No
BDInfo: 0.5.6
PLAYLIST REPORT:
Name: 00003.MPLS
Length: 1:18:11 (h:m:s)
Size: 0 bytes
Total Bitrate: 0,00 Mbps
VIDEO:
Codec Bitrate Description
----- ------- -----------
MPEG-4 AVC Video 0 kbps 1080i / 25 fps / 16:9 / High Profile 4.1
AUDIO:
Codec Language Bitrate Description
----- -------- ------- -----------
DTS-HD Master Audio French 0 kbps 2.0 / 48 kHz / 24-bit (DTS Core: 2.0 / 48 kHz / 1509 kbps / 24-bit)
DTS-HD Master Audio French 0 kbps 5.1 / 48 kHz / 24-bit (DTS Core: 5.1 / 48 kHz / 1509 kbps / 24-bit)
FILES:
Name Time In Length Size Total Bitrate
---- ------- ------ ---- -------------
00003.M2TS 0:00:00.000 1:18:11.119 0 0
CHAPTERS:
Number Time In Length Avg Video Rate Max 1-Sec Rate Max 1-Sec Time Max 5-Sec Rate Max 5-Sec Time Max 10Sec Rate Max 10Sec Time Avg Frame Size Max Frame Size Max Frame Time
------ ------- ------ -------------- -------------- -------------- -------------- -------------- -------------- -------------- -------------- -------------- --------------
1 0:00:00.000 0:02:24.760 0 kbps 0 kbps 00:00:00.000 0 kbps 00:00:00.000 0 kbps 00:00:00.000 0 bytes 0 bytes 00:00:00.000
2 0:02:24.760 0:03:46.239 0 kbps 0 kbps 00:00:00.000 0 kbps 00:00:00.000 0 kbps 00:00:00.000 0 bytes 0 bytes 00:00:00.000
3 0:06:11.000 0:04:31.919 0 kbps 0 kbps 00:00:00.000 0 kbps 00:00:00.000 0 kbps 00:00:00.000 0 bytes 0 bytes 00:00:00.000
4 0:10:42.919 0:04:42.400 0 kbps 0 kbps 00:00:00.000 0 kbps 00:00:00.000 0 kbps 00:00:00.000 0 bytes 0 bytes 00:00:00.000
5 0:15:25.319 0:03:34.080 0 kbps 0 kbps 00:00:00.000 0 kbps 00:00:00.000 0 kbps 00:00:00.000 0 bytes 0 bytes 00:00:00.000
6 0:18:59.400 0:03:53.239 0 kbps 0 kbps 00:00:00.000 0 kbps 00:00:00.000 0 kbps 00:00:00.000 0 bytes 0 bytes 00:00:00.000
7 0:22:52.639 0:05:04.360 0 kbps 0 kbps 00:00:00.000 0 kbps 00:00:00.000 0 kbps 00:00:00.000 0 bytes 0 bytes 00:00:00.000
8 0:27:57.000 0:03:29.599 0 kbps 0 kbps 00:00:00.000 0 kbps 00:00:00.000 0 kbps 00:00:00.000 0 bytes 0 bytes 00:00:00.000
9 0:31:26.599 0:04:38.400 0 kbps 0 kbps 00:00:00.000 0 kbps 00:00:00.000 0 kbps 00:00:00.000 0 bytes 0 bytes 00:00:00.000
10 0:36:05.000 0:04:41.599 0 kbps 0 kbps 00:00:00.000 0 kbps 00:00:00.000 0 kbps 00:00:00.000 0 bytes 0 bytes 00:00:00.000
11 0:40:46.599 0:04:07.199 0 kbps 0 kbps 00:00:00.000 0 kbps 00:00:00.000 0 kbps 00:00:00.000 0 bytes 0 bytes 00:00:00.000
12 0:44:53.799 0:04:54.000 0 kbps 0 kbps 00:00:00.000 0 kbps 00:00:00.000 0 kbps 00:00:00.000 0 bytes 0 bytes 00:00:00.000
13 0:49:47.799 0:06:17.680 0 kbps 0 kbps 00:00:00.000 0 kbps 00:00:00.000 0 kbps 00:00:00.000 0 bytes 0 bytes 00:00:00.000
14 0:56:05.479 0:04:51.240 0 kbps 0 kbps 00:00:00.000 0 kbps 00:00:00.000 0 kbps 00:00:00.000 0 bytes 0 bytes 00:00:00.000
15 1:00:56.720 0:04:49.239 0 kbps 0 kbps 00:00:00.000 0 kbps 00:00:00.000 0 kbps 00:00:00.000 0 bytes 0 bytes 00:00:00.000
16 1:05:45.959 0:04:33.879 0 kbps 0 kbps 00:00:00.000 0 kbps 00:00:00.000 0 kbps 00:00:00.000 0 bytes 0 bytes 00:00:00.000
17 1:10:19.839 0:07:51.279 0 kbps 0 kbps 00:00:00.000 0 kbps 00:00:00.000 0 kbps 00:00:00.000 0 bytes 0 bytes 00:00:00.000
STREAM DIAGNOSTICS:
File PID Type Codec Language Seconds Bitrate Bytes Packets
---- --- ---- ----- -------- -------------- -------------- ------------- -----
00003.M2TS 4113 (0x1011) 0x1B AVC 0,600 0 0 0
00003.M2TS 4352 (0x1100) 0x86 DTS-HD MA fra (French) 0,600 0 0 0
00003.M2TS 4353 (0x1101) 0x86 DTS-HD MA fra (French) 0,600 0 0 0

<---- END FORUMS PASTE ---->
QUICK SUMMARY:
Disc Title: Zazie - Rodeo Tour (2005) Blu-ray
Disc Size: 23 759 267 648 bytes
Protection: AACS
BD-Java: No
Playlist: 00003.MPLS
Size: 0 bytes
Length: 1:18:11
Total Bitrate: 0,00 Mbps
Video: MPEG-4 AVC Video / 0 kbps / 1080i / 25 fps / 16:9 / High Profile 4.1
Audio: French / DTS-HD Master Audio / 2.0 / 48 kHz / 24-bit (DTS Core: 2.0 / 48 kHz / 1509 kbps / 24-bit)
Audio: French / DTS-HD Master Audio / 5.1 / 48 kHz / 24-bit (DTS Core: 5.1 / 48 kHz / 1509 kbps / 24-bit)
********************
PLAYLIST: 00005.MPLS
********************
<--- BEGIN FORUMS PASTE --->

Код:
Total Video
Title Codec Length Movie Size Disc Size Bitrate Bitrate Main Audio Track Secondary Audio Track
----- ------ ------- -------------- -------------- ------- ------- ------------------ ---------------------
00005.MPLS AVC 0:37:27 0 23 759 267 648 0,00 0,00 DTS-HD Master 2.0 (48kHz/16-bit)
Код:
DISC INFO:
Disc Title: Zazie - Rodeo Tour (2005) Blu-ray
Disc Size: 23 759 267 648 bytes
Protection: AACS
BD-Java: No
BDInfo: 0.5.6
PLAYLIST REPORT:
Name: 00005.MPLS
Length: 0:37:27 (h:m:s)
Size: 0 bytes
Total Bitrate: 0,00 Mbps
VIDEO:
Codec Bitrate Description
----- ------- -----------
MPEG-4 AVC Video 0 kbps 576i / 25 fps / 16:9 / High Profile 4.1
AUDIO:
Codec Language Bitrate Description
----- -------- ------- -----------
DTS-HD Master Audio French 0 kbps 2.0 / 48 kHz / 16-bit (DTS Core: 2.0 / 48 kHz / 1509 kbps / 16-bit)
FILES:
Name Time In Length Size Total Bitrate
---- ------- ------ ---- -------------
00005.M2TS 0:00:00.000 0:37:27.480 0 0
CHAPTERS:
Number Time In Length Avg Video Rate Max 1-Sec Rate Max 1-Sec Time Max 5-Sec Rate Max 5-Sec Time Max 10Sec Rate Max 10Sec Time Avg Frame Size Max Frame Size Max Frame Time
------ ------- ------ -------------- -------------- -------------- -------------- -------------- -------------- -------------- -------------- -------------- --------------
1 0:00:00.000 0:37:27.480 0 kbps 0 kbps 00:00:00.000 0 kbps 00:00:00.000 0 kbps 00:00:00.000 0 bytes 0 bytes 00:00:00.000
STREAM DIAGNOSTICS:
File PID Type Codec Language Seconds Bitrate Bytes Packets
---- --- ---- ----- -------- -------------- -------------- ------------- -----
00005.M2TS 4113 (0x1011) 0x1B AVC 0 0 0 0
00005.M2TS 4352 (0x1100) 0x86 DTS-HD MA fra (French) 0 0 0 0

<---- END FORUMS PASTE ---->
QUICK SUMMARY:
Disc Title: Zazie - Rodeo Tour (2005) Blu-ray
Disc Size: 23 759 267 648 bytes
Protection: AACS
BD-Java: No
Playlist: 00005.MPLS
Size: 0 bytes
Length: 0:37:27
Total Bitrate: 0,00 Mbps
Video: MPEG-4 AVC Video / 0 kbps / 576i / 25 fps / 16:9 / High Profile 4.1
Audio: French / DTS-HD Master Audio / 2.0 / 48 kHz / 16-bit (DTS Core: 2.0 / 48 kHz / 1509 kbps / 16-bit)
********************
PLAYLIST: 00004.MPLS
********************
<--- BEGIN FORUMS PASTE --->

Код:
Total Video
Title Codec Length Movie Size Disc Size Bitrate Bitrate Main Audio Track Secondary Audio Track
----- ------ ------- -------------- -------------- ------- ------- ------------------ ---------------------
00004.MPLS AVC 0:17:55 0 23 759 267 648 0,00 0,00 DTS-HD Master 2.0 (48kHz/16-bit)
Код:
DISC INFO:
Disc Title: Zazie - Rodeo Tour (2005) Blu-ray
Disc Size: 23 759 267 648 bytes
Protection: AACS
BD-Java: No
BDInfo: 0.5.6
PLAYLIST REPORT:
Name: 00004.MPLS
Length: 0:17:55 (h:m:s)
Size: 0 bytes
Total Bitrate: 0,00 Mbps
VIDEO:
Codec Bitrate Description
----- ------- -----------
MPEG-4 AVC Video 0 kbps 576i / 25 fps / 16:9 / High Profile 4.1
AUDIO:
Codec Language Bitrate Description
----- -------- ------- -----------
DTS-HD Master Audio French 0 kbps 2.0 / 48 kHz / 16-bit (DTS Core: 2.0 / 48 kHz / 1509 kbps / 16-bit)
FILES:
Name Time In Length Size Total Bitrate
---- ------- ------ ---- -------------
00004.M2TS 0:00:00.000 0:17:55.520 0 0
CHAPTERS:
Number Time In Length Avg Video Rate Max 1-Sec Rate Max 1-Sec Time Max 5-Sec Rate Max 5-Sec Time Max 10Sec Rate Max 10Sec Time Avg Frame Size Max Frame Size Max Frame Time
------ ------- ------ -------------- -------------- -------------- -------------- -------------- -------------- -------------- -------------- -------------- --------------
1 0:00:00.000 0:17:55.520 0 kbps 0 kbps 00:00:00.000 0 kbps 00:00:00.000 0 kbps 00:00:00.000 0 bytes 0 bytes 00:00:00.000
STREAM DIAGNOSTICS:
File PID Type Codec Language Seconds Bitrate Bytes Packets
---- --- ---- ----- -------- -------------- -------------- ------------- -----
00004.M2TS 4113 (0x1011) 0x1B AVC 0 0 0 0
00004.M2TS 4352 (0x1100) 0x86 DTS-HD MA fra (French) 0 0 0 0

<---- END FORUMS PASTE ---->
QUICK SUMMARY:
Disc Title: Zazie - Rodeo Tour (2005) Blu-ray
Disc Size: 23 759 267 648 bytes
Protection: AACS
BD-Java: No
Playlist: 00004.MPLS
Size: 0 bytes
Length: 0:17:55
Total Bitrate: 0,00 Mbps
Video: MPEG-4 AVC Video / 0 kbps / 576i / 25 fps / 16:9 / High Profile 4.1
Audio: French / DTS-HD Master Audio / 2.0 / 48 kHz / 16-bit (DTS Core: 2.0 / 48 kHz / 1509 kbps / 16-bit)
********************
PLAYLIST: 00001.MPLS
********************
<--- BEGIN FORUMS PASTE --->

Код:
Total Video
Title Codec Length Movie Size Disc Size Bitrate Bitrate Main Audio Track Secondary Audio Track
----- ------ ------- -------------- -------------- ------- ------- ------------------ ---------------------
00001.MPLS AVC 0:00:21 0 23 759 267 648 0,00 0,00 DD AC3 2.0 448Kbps
Код:
DISC INFO:
Disc Title: Zazie - Rodeo Tour (2005) Blu-ray
Disc Size: 23 759 267 648 bytes
Protection: AACS
BD-Java: No
BDInfo: 0.5.6
PLAYLIST REPORT:
Name: 00001.MPLS
Length: 0:00:21 (h:m:s)
Size: 0 bytes
Total Bitrate: 0,00 Mbps
VIDEO:
Codec Bitrate Description
----- ------- -----------
MPEG-4 AVC Video 0 kbps 1080i / 25 fps / 16:9 / High Profile 4.1
AUDIO:
Codec Language Bitrate Description
----- -------- ------- -----------
Dolby Digital Audio French 448 kbps 2.0 / 48 kHz / 448 kbps
FILES:
Name Time In Length Size Total Bitrate
---- ------- ------ ---- -------------
00001.M2TS 0:00:00.000 0:00:21.759 0 0
CHAPTERS:
Number Time In Length Avg Video Rate Max 1-Sec Rate Max 1-Sec Time Max 5-Sec Rate Max 5-Sec Time Max 10Sec Rate Max 10Sec Time Avg Frame Size Max Frame Size Max Frame Time
------ ------- ------ -------------- -------------- -------------- -------------- -------------- -------------- -------------- -------------- -------------- --------------
1 0:00:00.000 0:00:21.759 0 kbps 0 kbps 00:00:00.000 0 kbps 00:00:00.000 0 kbps 00:00:00.000 0 bytes 0 bytes 00:00:00.000
STREAM DIAGNOSTICS:
File PID Type Codec Language Seconds Bitrate Bytes Packets
---- --- ---- ----- -------- -------------- -------------- ------------- -----
00001.M2TS 4113 (0x1011) 0x1B AVC 0 0 0 0
00001.M2TS 4352 (0x1100) 0x81 AC3 fra (French) 0 0 0 0

<---- END FORUMS PASTE ---->
QUICK SUMMARY:
Disc Title: Zazie - Rodeo Tour (2005) Blu-ray
Disc Size: 23 759 267 648 bytes
Protection: AACS
BD-Java: No
Playlist: 00001.MPLS
Size: 0 bytes
Length: 0:00:21
Total Bitrate: 0,00 Mbps
Video: MPEG-4 AVC Video / 0 kbps / 1080i / 25 fps / 16:9 / High Profile 4.1
Audio: French / Dolby Digital Audio / 2.0 / 48 kHz / 448 kbps

   
Торрент: Зарегистрирован [09 мар 2013, 11:10] Скачать торрент Магнет ссылка
Скачать торрент
[ Размер 58.06 КБ / Просмотров 191 ]
Статус:
 
.torrent скачан: 0 раз
Размер: 22.13 ГБ (23 759 267 648 байт)
   
 
 
Цитата
  • Похожие торренты
    Ответы
    Просмотры
    Последнее сообщение

Вернуться в World Pop

Кто сейчас на конференции

Сейчас эту тему просматривают: нет зарегистрированных пользователей и гости: 1