Я – Брюс Ли / I Am Bruce Lee [2011, Канада, Документальный, биография, боевые искусства, BDRip-AVC] VO + Original Eng

 Статистика раздачи 
Размер: 2.02 ГБ   |  Зарегистрирован: 04 мар 2013, 13:48   |   .torrent скачан: 1 раз
Сидеров: 4  [ 0 байт/сек ]     Личеров: 2  [ 0 байт/сек ]  
  
Аватара пользователя
Администратор
Администратор
 
Раздал: 24.48 ТБ
Скачал: 388.83 ГБ
Ратио: 145.343
Сообщения: 6043
Стаж: 7 лет 6 месяцев 19 дней
Откуда: Lithuania

Я – Брюс Ли / I Am Bruce Lee


Русское название: Я – Брюс Ли
Оригинальное название: I Am Bruce Lee
Год выхода: 2011
Режиссер: Пит МакКормак / Pete McCormack
В ролях: Даниэль Болелли, Пол Боуман, Ричард Бустилло, Стэфан Боннар, Коби Брайант, Линда Ли Кэдуэлл, Джина Карано, Реджинальд Хадлин, Дэн Иносанто, Диана Ли Иносант
Страна производства: Канада
Продолжительность: 94 мин. / 01:34
Продюсер: Дерик Мюррэй, Джон Барбисан, Пол Герц
Жанр: документальный, биография
Перевод: Студийный (одноголосый закадровый)
Cубтитры: нет

Рейтинг IMDB:
Рейтинг Kinopoisk:

Контейнер: MKV
Качество HD: BDRip
Формат аудио: AC3
Формат видео: MPEG-4 AVC, 1024x576, 2499 kbps, 29.970 fps, 0.141 bit/pixel
Видео: Russian: AC3 2.0, 48 kHz, 192 kbps
Аудио: English: AC3 5.1, 48 kHz, 384 kbps



Код: Выделить всё
General
Unique ID : 226397274201537496604700830516735063395 (0xAA52876AA8BB8E5183ED6685F4AF3563)
Complete name : D:netЯ-Брюс Ли.2011.x264.BDRip.(AVC).mkv
Format : Matroska
Format version : Version 1
File size : 2.02 GiB
Duration : 1h 34mn
Overall bit rate : 3 077 Kbps
Encoded date : UTC 2013-03-02 15:43:07
Writing application : mkvmerge v2.1.0 ('Another Place To Fall') built on Aug 19 2007 13:40:07
Writing library : libebml v0.7.7 + libmatroska v0.8.1
Video
ID : 1
Format : AVC
Format/Info : Advanced Video Codec
Format profile : [email protected]
Format settings, CABAC : Yes
Format settings, ReFrames : 8 frames
Codec ID : V_MPEG4/ISO/AVC
Duration : 1h 34mn
Bit rate : 2 499 Kbps
Width : 1 024 pixels
Height : 576 pixels
Display aspect ratio : 16:9
Frame rate mode : Constant
Frame rate : 29.970 fps
Color space : YUV
Chroma subsampling : 4:2:0
Bit depth : 8 bits
Scan type : Progressive
Bits/(Pixel*Frame) : 0.141
Stream size : 1.60 GiB (79%)
Title : I Am Bruce Lee
Writing library : x264 core 129 r2245 bc13772
Encoding settings : cabac=1 / ref=8 / deblock=1:-3:-3 / analyse=0x3:0x133 / me=umh / subme=10 / psy=1 / psy_rd=1.00:0.10 / mixed_ref=1 / me_range=32 / chroma_me=1 / trellis=2 / 8x8dct=1 / cqm=0 / deadzone=21,11 / fast_pskip=0 / chroma_qp_offset=-3 / threads=7 / lookahead_threads=1 / sliced_threads=0 / nr=0 / decimate=1 / interlaced=0 / bluray_compat=0 / constrained_intra=0 / bframes=8 / b_pyramid=2 / b_adapt=2 / b_bias=0 / direct=3 / weightb=1 / open_gop=0 / weightp=2 / keyint=300 / keyint_min=29 / scenecut=40 / intra_refresh=0 / rc_lookahead=40 / rc=2pass / mbtree=1 / bitrate=2499 / ratetol=1.0 / qcomp=0.60 / qpmin=10 / qpmax=51 / qpstep=4 / cplxblur=20.0 / qblur=0.5 / ip_ratio=1.40 / aq=1:1.00
Default : Yes
Forced : No
Audio #1
ID : 2
Format : AC-3
Format/Info : Audio Coding 3
Mode extension : CM (complete main)
Format settings, Endianness : Big
Codec ID : A_AC3
Duration : 1h 34mn
Bit rate mode : Constant
Bit rate : 192 Kbps
Channel(s) : 2 channels
Channel positions : Front: L R
Sampling rate : 48.0 KHz
Bit depth : 16 bits
Compression mode : Lossy
Stream size : 129 MiB (6%)
Title : Дубляж
Language : Russian
Default : No
Forced : No
Audio #2
ID : 3
Format : AC-3
Format/Info : Audio Coding 3
Mode extension : CM (complete main)
Format settings, Endianness : Big
Codec ID : A_AC3
Duration : 1h 34mn
Bit rate mode : Constant
Bit rate : 384 Kbps
Channel(s) : 6 channels
Channel positions : Front: L C R, Side: L R, LFE
Sampling rate : 48.0 KHz
Bit depth : 16 bits
Compression mode : Lossy
Stream size : 258 MiB (12%)
Title : Оригинал
Language : English
Default : No
Forced : No
Menu
00:00:00.000 : :Chapter 01
00:02:24.409 : :Chapter 02
00:06:05.464 : :Chapter 03
00:13:20.633 : :Chapter 04
00:18:51.663 : :Chapter 05
00:28:36.648 : :Chapter 06
00:38:51.094 : :Chapter 07
00:45:57.054 : :Chapter 08
00:56:06.129 : :Chapter 09
01:15:21.350 : :Chapter 10
01:20:17.479 : :Chapter 11
01:30:43.970 : :Chapter 12

Раздача сделана на базе фильма с канала Discovery, поэтому есть непереведенные места около 7 мин.
   
Торрент: Зарегистрирован [04 мар 2013, 13:48] Скачать торрент Магнет ссылка
Скачать торрент
[ Размер 10.75 КБ / Просмотров 162 ]
Статус:
Проверен
 
.torrent скачан: 1 раз
Размер: 2.02 ГБ (2 171 268 811 байт)
   Стать Автором раздачи
 
 
Цитата
  • Похожие торренты
    Ответы
    Просмотры
    Последнее сообщение

Вернуться в Личности

Кто сейчас на конференции

Сейчас эту тему просматривают: нет зарегистрированных пользователей и гости: 1