VA - Grenzwellen Eins (2017) Grenzwellen [FLAC|Lossless|WEB-DL|tracks|24Bit] <Ambient, IDM, Drone, Glitch, Modern Classical, Experimental>

 Статистика раздачи 
Размер: 1.83 ГБ   |  Зарегистрирован: 07 июн 2018, 18:52   |   .torrent скачан: 1 раз
Сидеров: 0  [ 0 байт/сек ]     Личеров: 0  [ 0 байт/сек ]  
  
Аватара пользователя
 
Раздал: 2.99 ТБ
Скачал: 11.01 ГБ
Ратио: 277.793
Сообщения: 183514
Стаж: 1 год 6 месяцев 3 дня

Grenzwellen Eins

Жанр: Ambient, IDM, Drone, Glitch, Modern Classical, Experimental
Издание: Grenzwellen - GW1
Источник: ссылка
Продолжительность: 04:00:02

Кодек: FLAC
Битрейт: Lossless|24Bit
Тип рипа: tracks

Треклист:


01. LPF12 – The Long Walk Begins (05:44)
02. Blac Kolor – Fat Years (Grenzwellen Edit) (06:08)
03. QLHEAD – On The Face Of It (04:09)
04. Mnemonic – Heuchler (05:16)
05. Huron – Metallic Bug Invasion (06:15)
06. Dirk Geiger – Gedankenlast (04:39)
07. Giulio Aldinucci – Replacing The Code (07:23)
08. Ecstasphere – I Do, I Undo, I Redo (Shortened Version) (06:52)
09. Waldrick – From Love To Peace (07:48)
10. Gabi Delgado – Sierra Luna (04:26)
11. Mind.Divided – Monochrome (04:22)
12. Ulrich Schnauss – Ein Feld Für Ecki (06:41)
13. CEEYS – Hover, Over, Me (05:55)
14. Marsen Jules Trio – Étoiles De La Nuit (Stringversion) (15:33)
15. Bersarin Quartett – Jeder Gedanke Umsonst Gedacht (05:11)
16. Bartosz Dziadosz & Giulio Aldinucci – Fiore (05:59)
17. Hecq – Silbersee (03:35)
18. Arovane – Una Corda Improvisation No. 2 (04:24)
19. Hans-Joachim Roedelius & Onnen Bock – Sechscells (03:13)
20. Scott Lawlor & Wings of an Angel – The Sweetest Dream Which Labors Existence (14:05)
21. Theothersideofwho? – Plutôt pluvieux et sombre (03:29)
22. ['ramp] – Schöneberg (07:33)
23. Item Caligo – Indecision, Acquittal (15:37)
24. Sven Laux – For K (05:52)
25. Markus Guentner – Lifeforms (11:18)
26. Sankt Otten & N – Heile Welt (08:19)
27. Adeptus Mechanicus – ...of Light And Energy (16:14)
28. Richard Chartier – Sketch For Winter (Version 2) (04:31)
29. Hotel Neon – 12:41 AM (07:29)
30. Wings of an Angel – Our History Will Always Continue To Haunt Our Future (18:28)
31. Ecki Stieg & Marco Rosenkranz – Ogrody (Edit) (13:17)
Код: Выделить всё
foobar2000 1.1 / Dynamic Range Meter 1.1.1
log date: 2018-06-07 16:32:12

--------------------------------------------------------------------------------
Analyzed: ['ramp] / Grenzwellen Eins (1)
          Adeptus Mechanicus / Grenzwellen Eins (2)
          Arovane / Grenzwellen Eins (3)
          Bartosz Dziadosz & Giulio Aldinucci / Grenzwellen Eins (4)
          Blac Kolor / Grenzwellen Eins (5)
          CEEYS / Grenzwellen Eins (6)
--------------------------------------------------------------------------------

DR         Peak         RMS     Duration Track
--------------------------------------------------------------------------------
DR12       0.00 dB   -15.26 dB      7:34 ?-Schöneberg
DR12      -1.35 dB   -16.70 dB     16:14 ?-...of Light And Energy
DR14       0.00 dB   -19.50 dB      4:24 ?-Una Corda Improvisation No. 2
DR5       -0.18 dB    -6.78 dB      6:00 ?-Fiore
DR5       -0.13 dB    -7.62 dB      6:08 ?-Fat Years (Grenzwellen Edit)
DR7       -0.29 dB   -11.13 dB      5:55 ?-Hover, Over, Me
--------------------------------------------------------------------------------

Number of tracks:  6
Official DR value: DR9

Samplerate:        44100 Hz
Channels:          2
Bits per sample:   16
Bitrate:           704 kbps
Codec:             FLAC
================================================================================

--------------------------------------------------------------------------------
Statistics for: ?-Gedankenlast
Number of samples: 12320653
Duration: 4:39
--------------------------------------------------------------------------------

                 Left              Right

Peak Value:     -0.22 dB   ---     -0.22 dB
Avg RMS:        -8.03 dB   ---     -8.01 dB
DR channel:      5.77 dB   ---      5.72 dB
--------------------------------------------------------------------------------

Official DR Value: DR6

Samplerate:        44100 Hz
Channels:          2
Bits per sample:   24
Bitrate:           1440 kbps
Codec:             FLAC
================================================================================
--------------------------------------------------------------------------------
Statistics for: ?-Ogrody (Edit)
Number of samples: 35167044
Duration: 13:17
--------------------------------------------------------------------------------

                 Left              Right

Peak Value:     -0.17 dB   ---     -0.17 dB
Avg RMS:       -16.71 dB   ---    -15.25 dB
DR channel:     10.20 dB   ---     10.17 dB
--------------------------------------------------------------------------------

Official DR Value: DR10

Samplerate:        44100 Hz
Channels:          2
Bits per sample:   16
Bitrate:           614 kbps
Codec:             FLAC
================================================================================
--------------------------------------------------------------------------------
Analyzed: Ecstasphere / Grenzwellen Eins (1)
          Gabi Delgado / Grenzwellen Eins (2)
--------------------------------------------------------------------------------

DR         Peak         RMS     Duration Track
--------------------------------------------------------------------------------
DR9       -0.31 dB   -13.65 dB      6:53 ?-I Do, I Undo, I Redo (Shortened Version)
DR8       -1.36 dB   -12.63 dB      4:26 ?-Sierra Luna
--------------------------------------------------------------------------------

Number of tracks:  2
Official DR value: DR8

Samplerate:        44100 Hz
Channels:          2
Bits per sample:   24
Bitrate:           1238 kbps
Codec:             FLAC
================================================================================

--------------------------------------------------------------------------------
Statistics for: ?-Replacing The Code
Number of samples: 19580371
Duration: 7:24
--------------------------------------------------------------------------------

                 Left              Right

Peak Value:     -0.11 dB   ---     -0.16 dB
Avg RMS:        -9.50 dB   ---     -9.64 dB
DR channel:      6.74 dB   ---      7.09 dB
--------------------------------------------------------------------------------

Official DR Value: DR7

Samplerate:        44100 Hz
Channels:          2
Bits per sample:   16
Bitrate:           792 kbps
Codec:             FLAC
================================================================================
--------------------------------------------------------------------------------
Analyzed: Hans-Joachim Roedelius & Onnen Bock / Grenzwellen Eins (1)
          Hecq / Grenzwellen Eins (2)
          Hotel Neon / Grenzwellen Eins (3)
          Huron / Grenzwellen Eins (4)
          Item Caligo / Grenzwellen Eins (5)
          LPF12 / Grenzwellen Eins (6)
          Markus Guentner / Grenzwellen Eins (7)
          Marsen Jules Trio / Grenzwellen Eins (8)
--------------------------------------------------------------------------------

DR         Peak         RMS     Duration Track
--------------------------------------------------------------------------------
DR11      -5.31 dB   -19.93 dB      3:13 ?-Sechscells
DR10      -2.39 dB   -16.25 dB      3:36 ?-Silbersee
DR9       -0.70 dB   -14.01 dB      7:30 ?-12:41 AM
DR13      -0.61 dB   -18.55 dB      6:15 ?-Metallic Bug Invasion
DR12      -2.03 dB   -17.96 dB     15:37 ?-Indecision, Acquittal
DR7       -1.01 dB   -11.02 dB      5:44 ?-The Long Walk Begins
DR8       -0.48 dB   -13.72 dB     11:19 ?-Lifeforms
DR10      -0.59 dB   -13.17 dB     15:34 ?-Étoiles De La Nuit (Stringversion)
--------------------------------------------------------------------------------

Number of tracks:  8
Official DR value: DR10

Samplerate:        44100 Hz
Channels:          2
Bits per sample:   24
Bitrate:           1393 kbps
Codec:             FLAC
================================================================================

--------------------------------------------------------------------------------
Statistics for: ?-Monochrome
Number of samples: 11582491
Duration: 4:23
--------------------------------------------------------------------------------

                 Left              Right

Peak Value:     -3.13 dB   ---     -3.13 dB
Avg RMS:        -8.49 dB   ---     -8.44 dB
DR channel:      4.09 dB   ---      4.00 dB
--------------------------------------------------------------------------------

Official DR Value: DR4

Samplerate:        44100 Hz
Channels:          2
Bits per sample:   16
Bitrate:           844 kbps
Codec:             FLAC
================================================================================
--------------------------------------------------------------------------------
Statistics for: ?-Heuchler
Number of samples: 13974403
Duration: 5:17
--------------------------------------------------------------------------------

                 Left              Right

Peak Value:     -1.76 dB   ---     -1.93 dB
Avg RMS:       -13.39 dB   ---    -13.42 dB
DR channel:      9.88 dB   ---      9.91 dB
--------------------------------------------------------------------------------

Official DR Value: DR10

Samplerate:        44100 Hz
Channels:          2
Bits per sample:   24
Bitrate:           1523 kbps
Codec:             FLAC
================================================================================
--------------------------------------------------------------------------------
Statistics for: ?-On The Face Of It
Number of samples: 11021355
Duration: 4:10
--------------------------------------------------------------------------------

                 Left              Right

Peak Value:     -0.20 dB   ---     -0.20 dB
Avg RMS:        -6.69 dB   ---     -6.91 dB
DR channel:      5.21 dB   ---      5.18 dB
--------------------------------------------------------------------------------

Official DR Value: DR5

Samplerate:        44100 Hz
Channels:          2
Bits per sample:   16
Bitrate:           909 kbps
Codec:             FLAC
================================================================================
--------------------------------------------------------------------------------
Analyzed: Richard Chartier / Grenzwellen Eins (1)
          Sankt Otten & N / Grenzwellen Eins (2)
          Scott Lawlor & Wings of an Angel / Grenzwellen Eins (3)
          Sven Laux / Grenzwellen Eins (4)
--------------------------------------------------------------------------------

DR         Peak         RMS     Duration Track
--------------------------------------------------------------------------------
DR10      -8.59 dB   -23.10 dB      4:32 ?-Sketch For Winter (Version 2)
DR10       0.00 dB   -11.75 dB      8:19 ?-Heile Welt
DR11      -3.72 dB   -18.91 dB     14:06 ?-The Sweetest Dream Which Labors Existence
DR10      -5.19 dB   -19.92 dB      5:53 ?-For K
--------------------------------------------------------------------------------

Number of tracks:  4
Official DR value: DR10

Samplerate:        44100 Hz
Channels:          2
Bits per sample:   24
Bitrate:           1236 kbps
Codec:             FLAC
================================================================================

--------------------------------------------------------------------------------
Statistics for: ?-Plutôt pluvieux et sombre
Number of samples: 9240576
Duration: 3:30
--------------------------------------------------------------------------------

                 Left              Right

Peak Value:     -0.10 dB   ---     -0.10 dB
Avg RMS:       -15.18 dB   ---    -14.98 dB
DR channel:     10.32 dB   ---     10.00 dB
--------------------------------------------------------------------------------

Official DR Value: DR10

Samplerate:        44100 Hz
Channels:          2
Bits per sample:   16
Bitrate:           622 kbps
Codec:             FLAC
================================================================================
--------------------------------------------------------------------------------
Analyzed: Ulrich Schnauss / Grenzwellen Eins (1)
          Waldrick / Grenzwellen Eins (2)
--------------------------------------------------------------------------------

DR         Peak         RMS     Duration Track
--------------------------------------------------------------------------------
DR7       -0.22 dB    -8.63 dB      6:41 ?-Ein Feld Für Ecki
DR6       -0.22 dB    -8.05 dB      7:49 ?-From Love To Peace
--------------------------------------------------------------------------------

Number of tracks:  2
Official DR value: DR6

Samplerate:        44100 Hz
Channels:          2
Bits per sample:   24
Bitrate:           1384 kbps
Codec:             FLAC
================================================================================

--------------------------------------------------------------------------------
Statistics for: ?-Our History Will Always Continue To Haunt Our Future
Number of samples: 48905955
Duration: 18:29
--------------------------------------------------------------------------------

                 Left              Right

Peak Value:     -3.78 dB   ---     -4.80 dB
Avg RMS:       -17.31 dB   ---    -17.32 dB
DR channel:     10.08 dB   ---     10.37 dB
--------------------------------------------------------------------------------

Official DR Value: DR10

Samplerate:        44100 Hz
Channels:          2
Bits per sample:   16
Bitrate:           476 kbps
Codec:             FLAC
================================================================================
--------------------------------------------------------------------------------
Statistics for: ?-Jeder Gedanke Umsonst Gedacht
Number of samples: 14960704
Duration: 5:12
--------------------------------------------------------------------------------

                 Left              Right

Peak Value:     -0.10 dB   ---     -0.10 dB
Avg RMS:       -12.00 dB   ---    -11.82 dB
DR channel:      7.43 dB   ---      7.12 dB
--------------------------------------------------------------------------------

Official DR Value: DR7

Samplerate:        48000 Hz
Channels:          2
Bits per sample:   24
Bitrate:           1430 kbps
Codec:             FLAC
================================================================================

Время раздачи: 12/7
Не забывайте говорить Спасибо. Не уходите с раздачи!   
Торрент: Зарегистрирован [07 июн 2018, 18:52] Для скачивания .torrent
необходима регистрация
Или скачать с помощью
MediaGet
Статус:
Проверен
 
.torrent скачан: 1 раз
Размер: 1.83 ГБ (1 966 714 509 байт)
   Стать Автором раздачи
   
Цитата
  • Похожие торренты
    Ответы
    Просмотры
    Последнее сообщение

Вернуться в Electronic

Кто сейчас на конференции

Сейчас эту тему просматривают: нет зарегистрированных пользователей и гости: 1