(Rock, Pop) Banned, Uncensored, Uncut Music Videos / Запрещенные видеоклипы (2009-2010) [DVDSrc]

 Статистика раздачи 
Размер: 2 ГБ   |  Зарегистрирован: 02 мар 2013, 11:32   |   .torrent скачан: 6 раз
Сидеров: 2  [ 0 байт/сек ]     Личеров: 35  [ 0 байт/сек ]  
  
Аватара пользователя
Автор темы
Раздал: 2.97 ТБ
Скачал: 50.52 ГБ
Ратио: 105.507
Сообщения: 38
Стаж: 3 года 11 месяцев 26 дней
Откуда: West Ural

Banned, Uncensored, Uncut Music Videos / Запрещенные видеоклипы (2009-2010)


Оригинальное название: Banned, Uncensored, Uncut Music Videos
Дата выхода: 2010
Жанр: Rock, Pop
Страна: World
Продолжительность: 04:43:11
Качество: DVDSrc
Формат аудио: MP3
Формат видео: AVI
Аудио: Оригинал / XviD, 2 channals, 44,1 kHz, 768 kbps
Видео: 720x576, 128 kbps

Просто клипы, запрещённые для показа на TV-каналах и MTV

Запрещeнные видеоклипы часть 1
Angelina - Pictures Of You (00:07:20)
Ava - Make Me High (& Star Tattooed) (00:03:22)
Bjork - Pagan Poetry (00:04:04)
Black Eyed Peas - I Gotta Feeling (00:04:49)
Bloodhound Gang - Ballad Of Chasey Lain (00:03:04)
Blue System - Laila (00:03:24)
Britney Spears - Womanizer (Dsont XXX Remix) (00:05:00)
Buckcherry - Crazy Bitch (00:03:25)
C.O.P. Project - Pornostar (00:03:59)
Cerrone - Give Me Love (00:04:04)
Daz Dillinger - Because Of You (feat.Kurupt) (00:04:36)
Dick Short For Richard - Porn Star Girl (Supremos Porn Edit) (00:03:15)
DJ Jean - Feel It (00:03:48)
DJ Quik - Sweet Black Pussy (00:04:23)
DJ Tamara Sky - Lick It (00:03:16)
Dutch & Spade - If You Want It (00:04:05)
East Clubbers - It`s A Dream (00:03:49)
Eminem - Superman (00:04:54)
Enigma - Principles Of Lust (00:03:32)
Estelle - Sex Machine (00:06:09)
Goldfrapp - Strict Machine (DJ Tarkan Benassi XXX Remix) (00:03:20)

Запрещeнные видеоклипы часть 2
Him - Wicked Game (00:03:32)
Hollywood Undead - Undead (00:03:35)
Jadakiss - Knock Your Self Out (00:03:53)
Jay-Z - Face Off (00:06:17)
Josh Wink - Higher State Of Concioussness (00:03:17)
Julien-K - Kick The Bass (00:03:41)
Junior Jack - Stupidisco (00:04:17)
Ludacris - Pussy Poppin (feat.Shawnna) (00:05:06)
Metallica - Turn The Page (00:05:58)
N.E.R.D. - Lap Dance (feat.Lee Harvey & Vita) (00:03:33)
Nicoleta Luciu - Alerg (00:03:55)
Paola & Chiara - Kamasutra (00:03:08)
Phalanx - Fields Of Dreams (00:03:57)
Placebo - Protege Moi (00:03:21)
Prodigy - Smack My Bitch Up (00:04:35)
Rammstein - Pussy (00:03:57)
Samantha Fox - Let Me Be Free (00:03:44)
Shaggy - Freaky Girl (00:03:28)
Steel Panther - Community Property Explicit (00:04:23)
Zoxea - J'ai Besoin De Sexe (00:04:22)

Запрещeнные видеоклипы часть 3
Calanit - Sculptured (Do-Dee-Dee-Deem-Dum) (00:04:26)
Carmen Electra - 2-4-6-8 (00:02:56)
Dope - Bitch (00:03:10)
Dope - Today Is The Day (00:03:00)
Dragpipe - Simple Minded (00:03:50)
Duran Duran - Girls On Film (00:06:24)
Duran Duran - The Chauffer (00:04:59)
Falco - Naked (00:03:46)
Fig Dish - When Shirts Get Tight (00:05:24)
Helix - Gimme Gimme Good Lovin (00:03:36)
Lacrimosa - Alleine Zu Zweit (00:03:40)
Laura Andresan - Imi Place (00:03:23)
Laura Andresan - Muntele Venus (00:05:39)
Long Beach Oub Allstars - Trailer Ras (00:03:12)
Luna - Chiki Chiki (00:03:56)
Madonna - Justify My Love (00:05:05)
Massive Attack - Be Thankfull (00:05:40)
Molotov - Rastamandita (00:03:33)
Motley Crue - Girls Girls Girls (00:04:23)
Necro - Who`s Ya Daddy (00:03:34)
Oomph - Gekreuzigt (00:04:44)
Prodigy - Smack My Bitch (00:04:34)
Robbie Williams - Come Undone (00:04:32)
Scooter - Weekend (00:03:34)
SSQ - Screaming In My Pillow (00:04:15)
Tenacious D - Fuck Her Gently (00:02:38)
The Cribs - Men`s Needs (00:03:17)
The Dwarves - Over You (00:02:34)


General
Complete name : E:\TORRENTS\Запрещенные клипы\ЗК\Запрещeнные видеоклипы часть 1\Angelina - Pictures of You.avi
Format : AVI
Format/Info : Audio Video Interleave
File size : 52.4 MiB
Duration : 7mn 20s
Overall bit rate mode : Variable
Overall bit rate : 998 Kbps
Writing application : MEncoder r33883
Writing library : MPlayer

Video
ID : 0
Format : MPEG-4 Visual
Format profile : [email protected]
Format settings, BVOP : No
Format settings, QPel : No
Format settings, GMC : No warppoints
Format settings, Matrix : Default (H.263)
Codec ID : XVID
Codec ID/Hint : XviD
Duration : 7mn 20s
Bit rate : 768 Kbps
Width : 720 pixels
Height : 576 pixels
Display aspect ratio : 5:4
Frame rate : 25.000 fps
Standard : PAL
Color space : YUV
Chroma subsampling : 4:2:0
Bit depth : 8 bits
Scan type : Progressive
Compression mode : Lossy
Bits/(Pixel*Frame) : 0.074
Stream size : 40.3 MiB (77%)
Writing library : XviD 63

Audio
ID : 1
Format : MPEG Audio
Format version : Version 1
Format profile : Layer 3
Mode : Joint stereo
Codec ID : 55
Codec ID/Hint : MP3
Duration : 7mn 20s
Bit rate mode : Variable
Bit rate : 218 Kbps
Channel(s) : 2 channels
Sampling rate : 44.1 KHz
Compression mode : Lossy
Stream size : 11.5 MiB (22%)
Alignment : Aligned on interleaves
Interleave, duration : 26 ms (0.65 video frame)
Interleave, preload duration : 413 ms
   
Торрент: Зарегистрирован [02 мар 2013, 11:32] Скачать торрент Магнет ссылка
Скачать торрент
[ Размер 18.32 КБ / Просмотров 397 ]
Статус:
Проверен
 
.torrent скачан: 6 раз
Размер: 2 ГБ (2 148 896 708 байт)
   
 
 
Уходишь с трекера - уходи... Но не вздумай хлопать дверью, баклан!
Цитата
  • Похожие торренты
    Ответы
    Просмотры
    Последнее сообщение

Вернуться в Music from other genres

Кто сейчас на конференции

Сейчас эту тему просматривают: нет зарегистрированных пользователей и гости: 1