Простые истины / Straight A's (Джеймс Кокс / James Cox) [2012, США, драма, комедия, HDRip] DVO (НТВ+)

 Статистика раздачи 
Размер: 1.37 ГБ   |  Зарегистрирован: 24 фев 2013, 00:33   |   .torrent скачан: 1 раз
Сидеров: 9  [ 0 байт/сек ]     Личеров: 0  [ 0 байт/сек ]  
  
Аватара пользователя
Автор темы
Раздал: 513.89 ГБ
Скачал: 42.55 ГБ
Ратио: 16.838
Сообщения: 5
Стаж: 4 года 7 месяцев 3 дня

Простые истины / Straight A's


Русское название: Простые истины
Оригинальное название: Straight A's
Год выхода: 2012
Режиссер: Джеймс Кокс
Страна производства: США
Продолжительность: 01:28:20
Продюсер: Рене Бессон, Скут МакНэйри, Джон Пирс
Сценарий: Дэйв Коул, Дэвид Коул
Жанр: драма, комедия
Перевод: Профессиональный (двухголосый закадровый) НТВ+

В ролях: Райан Филипп, Анна Пэкуин, Люк Уилсон, Райли Стюарт, Урсула Паркер, Пауэрс Бут, Криста Кэмпбелл, Тесс Харпер, Симона Левин, Джонни Бранно

Описание: Молодой человек на протяжении десяти лет регулярно проходил курс лечения в реабилитационном центре. По настоянию духа его покойной матери он возвращается к родным, от которых отдалился много лет назад. В результате он встречается со своим братом и его женой, которая до сих пор в него влюблена.
Рейтинг MPAA: R - Лицам до 17 лет обязательно присутствие взрослого
Рейтинг IMDB:
Рейтинг Kinopoisk:

Качество: HDRip
Формат видео: AVI
Формат аудио: AC3
Видео: 720x304 (2.37:1), 23.976 fps, XviD MPEG-4 ~2012 kbps avg, 0.38 bit/pixel
Аудио: 48 kHz, AC3 Dolby Digital, 2/0 (L,R) ch, ~192 kbps



Код: Выделить всё
D:videoProstye_istiny_HDRip.avi
 General
 Complete name : D:videoProstye_istiny_HDRip.avi
 Format : AVI
 Format/Info : Audio Video Interleave
 File size : 1.37 GiB
 Duration : 1h 28mn
 Overall bit rate : 2 214 Kbps
 Writing application : VirtualDubMod 1.5.10.2 (build 2540/release)
 Writing library : VirtualDubMod build 2540/release
 Video #0
 ID : 0
 Format : MPEG-4 Visual
 Format profile : Advanced [email protected]
 Format settings, BVOP : 2
 Format settings, QPel : No
 Format settings, GMC : No warppoints
 Format settings, Matrix : Default (MPEG)
 Muxing mode : Packed bitstream
 Codec ID : XVID
 Codec ID/Hint : XviD
 Duration : 1h 28mn
 Bit rate : 2 013 Kbps
 Width : 720 pixels
 Height : 304 pixels
 Display aspect ratio : 2.35:1
 Frame rate : 23.976 fps
 Color space : YUV
 Chroma subsampling : 4:2:0
 Bit depth : 8 bits
 Scan type : Progressive
 Compression mode : Lossy
 Bits/(Pixel*Frame) : 0.383
 Stream size : 1.24 GiB (91%)
 Writing library : XviD 1.2.1 (UTC 2008-12-04)
 Audio #1
 ID : 1
 Format : AC-3
 Format/Info : Audio Coding 3
 Mode extension : CM (complete main)
 Format settings, Endianness : Big
 Codec ID : 2000
 Duration : 1h 28mn
 Bit rate mode : Constant
 Bit rate : 192 Kbps
 Channel(s) : 2 channels
 Channel positions : Front: L R
 Sampling rate : 48.0 KHz
 Bit depth : 16 bits
 Compression mode : Lossy
 Stream size : 121 MiB (9%)
 Alignment : Split accross interleaves
 Interleave, duration : 42 ms (1.00 video frame)
 Interleave, preload duration : 500 ms
   
Торрент: Зарегистрирован [24 фев 2013, 00:33] Скачать торрент Магнет ссылка
Скачать торрент
[ Размер 14.25 КБ / Просмотров 244 ]
Статус:
Проверен
 
.torrent скачан: 1 раз
Размер: 1.37 ГБ (1 466 834 944 байт)
   
 
 
Цитата
  • Похожие торренты
    Ответы
    Просмотры
    Последнее сообщение

Вернуться в Новинки (DVD Rips, HD Rips)

Кто сейчас на конференции

Сейчас эту тему просматривают: нет зарегистрированных пользователей и гости: 1