(Disco, Eurodance) Tatjana - Hollands Glorie - 2010, FLAC (image+.cue), lossless

 Статистика раздачи 
Размер: 528.39 МБ   |  Зарегистрирован: 27 май 2018, 22:26   |   .torrent скачан: 0 раз
Сидеров: 0  [ 0 байт/сек ]     Личеров: 0  [ 0 байт/сек ]  
  
Аватара пользователя
 
Раздал: 1.34 ТБ
Скачал: 10.09 ГБ
Ратио: 136.269
Сообщения: 164449
Стаж: 2 года 3 месяца 18 дней

Tatjana / Hollands Glorie
Жанр: disco, eurodance
Страна-производитель диска: Netherlands
Год издания диска: 2010
Издатель (лейбл): CNR Music
Страна: Holland
Аудиокодек: FLAC (*.flac)
Тип рипа: image+.cue
Битрейт аудио: lossless
Продолжительность: 70:55
Источник (релизер): мой рип
Наличие сканов в содержимом раздачи: нет
Треклист:
1 Calendar Girl 3:43
2 Awaka-Boy 4:07
3 Fly Away 5:17
4 Feel Good 3:28
5 Na Na Na Na (Come On Let's Go Out) 3:20
6 Just When I Needed You Most 5:21
7 Don't You Want Me Baby 3:54
8 Gimme All Your Loving 4:00
9 Can't Take My Eyes Off Of You 5:12
10 He's My Man 2:33
11 Takes A Little Time 3:30
12 Letter To Your Heart 3:34
13 Never Never 4:18
14 You And Me 4:32
15 Santa Maria 3:19
16 Baila Baila 3:15
17 The First Time 3:53
18 Chica Cubana 3:27
Код: Выделить всё
Exact Audio Copy V0.99 prebeta 5 from 4. May 2009
EAC extraction logfile from 9. July 2011, 10:05
Tatjana / Tatjana  -  Hollands Glorie
Used drive  : TSSTcorpCDDVDW SH-S222A   Adapter: 1  ID: 0
Read mode               : Secure
Utilize accurate stream : Yes
Defeat audio cache      : Yes
Make use of C2 pointers : No
Read offset correction                      : 6
Overread into Lead-In and Lead-Out          : No
Fill up missing offset samples with silence : Yes
Delete leading and trailing silent blocks   : No
Null samples used in CRC calculations       : Yes
Used interface                              : Native Win32 interface for Win NT & 2000
Used output format : Internal WAV Routines
Sample format      : 44.100 Hz; 16 Bit; Stereo
TOC of the extracted CD
     Track |   Start  |  Length  | Start sector | End sector
    ---------------------------------------------------------
        1  |  0:00.00 |  3:43.32 |         0    |    16756
        2  |  3:43.32 |  4:07.53 |     16757    |    35334
        3  |  7:51.10 |  5:17.60 |     35335    |    59169
        4  | 13:08.70 |  3:28.65 |     59170    |    74834
        5  | 16:37.60 |  3:20.18 |     74835    |    89852
        6  | 19:58.03 |  5:21.71 |     89853    |   113998
        7  | 25:19.74 |  3:54.55 |    113999    |   131603
        8  | 29:14.54 |  4:00.64 |    131604    |   149667
        9  | 33:15.43 |  5:12.47 |    149668    |   173114
       10  | 38:28.15 |  2:33.70 |    173115    |   184659
       11  | 41:02.10 |  3:30.18 |    184660    |   200427
       12  | 44:32.28 |  3:34.31 |    200428    |   216508
       13  | 48:06.59 |  4:18.70 |    216509    |   235928
       14  | 52:25.54 |  4:32.67 |    235929    |   256395
       15  | 56:58.46 |  3:19.71 |    256396    |   271391
       16  | 60:18.42 |  3:15.10 |    271392    |   286026
       17  | 63:33.52 |  3:53.62 |    286027    |   303563
       18  | 67:27.39 |  3:27.63 |    303564    |   319151
Range status and errors
Selected range
     Filename E:\music\torrent\Tatjana\Tatjana  -  Hollands Glorie.wav
     Peak level 100.0 %
     Range quality 100.0 %
     Test CRC B6135E18
     Copy CRC B6135E18
     Copy OK
No errors occurred
Сборник.
Не забывайте говорить Спасибо. Не уходите с раздачи!   
Торрент: Зарегистрирован [27 май 2018, 22:26] Для скачивания .torrent
необходима регистрация
Или скачать с помощью
MediaGet
Статус:
Проверен
 
.torrent скачан: 0 раз
Размер: 528.39 МБ (554 058 665 байт)
   Стать Автором раздачи
   
Цитата
Случайная аватара. Подставляется автоматически при отсутствии установленной пользователем аватары. Рекомендуется менять на свою или жить с Лоховской Аватаркой ))).
Раздал: 51.37 ГБ
Скачал: 3.42 ГБ
Ратио: 15.022
Сообщения: 1
Стаж: 18 дней
СообщениеДобавлено: 11 окт 2018, 23:16
Странник писал(а):

Re: (Disco, Eurodance) Tatjana - Hollands Glorie - 2010, FLAC (image+.cue), lossless
не качается 4 сутки, встаньте на раздачу пожалуйста
Цитата
Аватара пользователя
Главный редактор
Главный редактор
Я на сайте
Раздал: 52.3 ТБ
Скачал: 2.55 ТБ
Ратио: 20.932
Сообщения: 145597
Стаж: 7 лет 11 месяцев 26 дней
Откуда: Санкт-Петербург
СообщениеДобавлено: 11 окт 2018, 23:54
Сид один и не всегда на месте, но он есть. :unknown:
Цитата

  • Похожие торренты
    Ответы
    Просмотры
    Последнее сообщение

Вернуться в Electronic

Кто сейчас на конференции

Сейчас эту тему просматривают: нет зарегистрированных пользователей и гости: 1