Валаамский архипелаг. Зима (Сергей Ермоленко) [2013, документальный, HDTV 1080i]

 Статистика раздачи 
Размер: 1.6 ГБ   |  Зарегистрирован: 19 янв 2018, 03:29   |   .torrent скачан: 0 раз
Сидеров: 0  [ 0 байт/сек ]     Личеров: 0  [ 0 байт/сек ]  
  
Аватара пользователя
 
Раздал: 0 байт
Скачал: 0 байт
Ратио: Inf.
Сообщения: 4558
Стаж: 7 лет 2 месяца 17 дней
Откуда: Russia

Валаамский архипелаг. Зима
Год выпуска: 2013
Страна: Россия
Студия: RTG TV
Жанр: документальный
Продолжительность: 00:26:32
Перевод: Не требуется
Режиссер: Сергей Ермоленко
Описание: Валаамский архипелаг, самое крупное скопление островов в Ладожском озере, поражает воображение путешественника в любое время года. Крутые скалы, покрытые густыми лесами, напоминают крепость. Зимой пейзаж отличает особая суровость и аскетичность. Не удивительно, что затерянные в Ладоге острова стали приютом для тех, кто готов к испытаниям, физическим и духовным. Не позднее 14 века здесь был основан Валаамский мужской монастырь. Природная крепость стала твердыней православия. Зимой жизнь на далеких островах полна одухотворенной красоты.
Тип релиза: HDTV 1080i
Контейнер: TS
Видео: AVC, PAL, 1920x1080, 16x9, 7992 Кbps, 25fps
Аудио: Русский, MP2, 2Ch, 48KHz, 192kbps
Код: Выделить всё
Общее
Идентификатор                            : 1 (0x1)
Полное имя                               : H:\Валаамский архипелаг. Зима (RTG2013).ts
Формат                                   : MPEG-TS
Размер файла                             : 1,60 Гбайт
Продолжительность                        : 26 м. 32 с.
Режим общего битрейта                    : Переменный
Общий поток                              : 8611 Кбит/сек
Видео
Идентификатор                            : 256 (0x100)
Идентификатор меню                       : 1 (0x1)
Формат                                   : AVC
Формат/Информация                        : Advanced Video Codec
Профиль формата                          : [email protected]
Параметр CABAC формата                   : Да
Параметр ReFrames формата                : 4 кадра
Идентификатор кодека                     : 27
Продолжительность                        : 26 м. 32 с.
Битрейт                                  : 7992 Кбит/сек
Ширина                                   : 1920 пикселей
Высота                                   : 1080 пикселей
Соотношение сторон                       : 16:9
Частота кадров                           : 25,000 кадров/сек
Стандарт вещания                         : Component
Цветовое пространство                    : YUV
Субдискретизация насыщенности            : 4:2:0
Битовая глубина                          : 8 бит
Тип развёртки                            : Чересстрочная
Метод сохранения типа развёртки          : Раздельные поля
Порядок развёртки                        : Верхнее поле первое
Бит/(Пиксели*Кадры)                      : 0.154
Размер потока                            : 1,48 Гбайт (93%)
Цветовой диапазон                        : Limited
Основные цвета                           : BT.709
Характеристики трансфера                 : BT.709
Коэффициенты матрицы                     : BT.709
Аудио
Идентификатор                            : 257 (0x101)
Идентификатор меню                       : 1 (0x1)
Формат                                   : MPEG Audio
Версия формата                           : Version 1
Профиль формата                          : Layer 2
Идентификатор кодека                     : 3
Продолжительность                        : 26 м. 32 с.
Вид битрейта                             : Постоянный
Битрейт                                  : 192 Кбит/сек
Каналы                                   : 2 канала
Частота                                  : 48,0 КГц
Метод сжатия                             : С потерями
Размер потока                            : 36,5 Мбайт (2%)
Язык                                     : Russian
   
Торрент: Зарегистрирован [19 янв 2018, 03:29] Скачать торрент Магнет ссылка
Скачать торрент
[ Размер 16.45 КБ / Просмотров 11 ]
Статус:
Проверен
 
.torrent скачан: 0 раз
Размер: 1.6 ГБ (1 714 634 072 байт)
   Стать Автором раздачи
 
 
Цитата

Вернуться в Путешествия и туризм

Кто сейчас на конференции

Сейчас эту тему просматривают: нет зарегистрированных пользователей и гости: 1