Кукрыниксы - Последняя песня (2018) 2CD [FLAC|Lossless|tracks + .cue] <Rock>

 Статистика раздачи 
Размер: 1.06 ГБ   |  Зарегистрирован: 24 май 2018, 20:42   |   .torrent скачан: 2 раз
Сидеров: 4  [ 0 байт/сек ]     Личеров: 2  [ 0 байт/сек ]  
  
Аватара пользователя
 
Раздал: 1.54 ТБ
Скачал: 30.55 ГБ
Ратио: 51.775
Сообщения: 179337
Стаж: 2 года 5 месяцев 10 дней

Кукрыниксы - Последняя песня (2018) 2CD



Жанр:
Rock
Издание: Soyus Music - SZCD9854-18
Кодек: FLAC Битрейт: Lossless Тип рипа: tracks + .cue+covers
Продолжительность: 02:18:11
Продолжительность - 01:10:58
Треклист:

01. Не беда (3:35)
02. Солдатская печаль (3:36)
03. По раскрашенной душе (3:37)
04. Дороги (4:13)
05. Творец (3:41)
06. Столкновение (3:54)
07. Движение (4:36)
08. Чёрная невеста (4:05)
09. Знай (3:54)
10. Кайф (3:02)
11. Наше кино (3:47)
12. Звезда (4:51)
13. Вертикаль (3:49)
14. Герой (4:01)
15. Колдовство (4:07)
16. Тёмный город (3:47)
17. Песня наивного человека (4:16)
18. Крайние меры (4:06)
Код: Выделить всё
Exact Audio Copy V1.3 from 2. September 2016

EAC extraction logfile from 20. May 2018, 15:21

Кукрыниксы / Последняя песня [CD 1]

Used drive  : PIONEER DVD-RW  DVR-218L   Adapter: 1  ID: 0

Read mode               : Secure
Utilize accurate stream : Yes
Defeat audio cache      : Yes
Make use of C2 pointers : No

Read offset correction                      : 6
Overread into Lead-In and Lead-Out          : No
Fill up missing offset samples with silence : Yes
Delete leading and trailing silent blocks   : No
Null samples used in CRC calculations       : Yes
Used interface                              : Native Win32 interface for Win NT & 2000
Gap handling                                : Appended to previous track

Used output format              : User Defined Encoder
Selected bitrate                : 896 kBit/s
Quality                         : High
Add ID3 tag                     : No
Command line compressor         : C:\Program Files (x86)\Exact Audio Copy\Flac\flac.exe
Additional command line options : -V -7 -T "Genre=%genre%" -T "Artist=%artist%" -T "Title=%title%" -T "Album=%albumtitle%" -T "Date=%year%" -T "Tracknumber=%tracknr%" -T "Comment=%comment%" %source%

TOC of the extracted CD

     Track |   Start  |  Length  | Start sector | End sector
    ---------------------------------------------------------
        1  |  0:00.00 |  3:35.17 |         0    |    16141
        2  |  3:35.17 |  3:35.46 |     16142    |    32312
        3  |  7:10.63 |  3:37.21 |     32313    |    48608
        4  | 10:48.09 |  4:12.50 |     48609    |    67558
        5  | 15:00.59 |  3:41.20 |     67559    |    84153
        6  | 18:42.04 |  3:54.15 |     84154    |   101718
        7  | 22:36.19 |  4:36.00 |    101719    |   122418
        8  | 27:12.19 |  4:05.00 |    122419    |   140793
        9  | 31:17.19 |  3:54.15 |    140794    |   158358
       10  | 35:11.34 |  3:02.00 |    158359    |   172008
       11  | 38:13.34 |  3:47.27 |    172009    |   189060
       12  | 42:00.61 |  4:51.00 |    189061    |   210885
       13  | 46:51.61 |  3:48.74 |    210886    |   228059
       14  | 50:40.60 |  4:01.02 |    228060    |   246136
       15  | 54:41.62 |  4:07.00 |    246137    |   264661
       16  | 58:48.62 |  3:46.63 |    264662    |   281674
       17  | 62:35.50 |  4:16.07 |    281675    |   300881
       18  | 66:51.57 |  4:05.74 |    300882    |   319330

Track  1

     Filename D:\_МУЗЫКА\Кукрыниксы - Последняя песня [2xCD] 2018\CD 1\01 Не беда.wav

     Pre-gap length  0:00:02.00

     Peak level 100.0 %
     Extraction speed 1.2 X
     Track quality 100.0 %
     Test CRC D18B6D13
     Copy CRC D18B6D13
     Track not present in AccurateRip database
     Copy OK

Track  2

     Filename D:\_МУЗЫКА\Кукрыниксы - Последняя песня [2xCD] 2018\CD 1\02 Солдатская печаль.wav

     Pre-gap length  0:00:02.00

     Peak level 98.8 %
     Extraction speed 1.3 X
     Track quality 100.0 %
     Test CRC 4B90E021
     Copy CRC 4B90E021
     Track not present in AccurateRip database
     Copy OK

Track  3

     Filename D:\_МУЗЫКА\Кукрыниксы - Последняя песня [2xCD] 2018\CD 1\03 По раскрашенной душе.wav

     Pre-gap length  0:00:02.00

     Peak level 98.8 %
     Extraction speed 1.4 X
     Track quality 100.0 %
     Test CRC DFBB9A26
     Copy CRC DFBB9A26
     Track not present in AccurateRip database
     Copy OK

Track  4

     Filename D:\_МУЗЫКА\Кукрыниксы - Последняя песня [2xCD] 2018\CD 1\04 Дороги.wav

     Pre-gap length  0:00:02.00

     Peak level 98.8 %
     Extraction speed 1.3 X
     Track quality 99.9 %
     Test CRC E3FA3FC6
     Copy CRC E3FA3FC6
     Track not present in AccurateRip database
     Copy OK

Track  5

     Filename D:\_МУЗЫКА\Кукрыниксы - Последняя песня [2xCD] 2018\CD 1\05 Творец.wav

     Pre-gap length  0:00:02.00

     Peak level 98.8 %
     Extraction speed 1.6 X
     Track quality 100.0 %
     Test CRC 3D630E42
     Copy CRC 3D630E42
     Track not present in AccurateRip database
     Copy OK

Track  6

     Filename D:\_МУЗЫКА\Кукрыниксы - Последняя песня [2xCD] 2018\CD 1\06 Столкновение.wav

     Pre-gap length  0:00:02.00

     Peak level 98.8 %
     Extraction speed 1.6 X
     Track quality 100.0 %
     Test CRC F06CBFAE
     Copy CRC F06CBFAE
     Track not present in AccurateRip database
     Copy OK

Track  7

     Filename D:\_МУЗЫКА\Кукрыниксы - Последняя песня [2xCD] 2018\CD 1\07 Движение.wav

     Pre-gap length  0:00:02.00

     Peak level 97.2 %
     Extraction speed 1.8 X
     Track quality 100.0 %
     Test CRC 1455C9B3
     Copy CRC 1455C9B3
     Track not present in AccurateRip database
     Copy OK

Track  8

     Filename D:\_МУЗЫКА\Кукрыниксы - Последняя песня [2xCD] 2018\CD 1\08 Чёрная невеста.wav

     Pre-gap length  0:00:02.00

     Peak level 98.8 %
     Extraction speed 1.6 X
     Track quality 99.9 %
     Test CRC 1023C07B
     Copy CRC 1023C07B
     Track not present in AccurateRip database
     Copy OK

Track  9

     Filename D:\_МУЗЫКА\Кукрыниксы - Последняя песня [2xCD] 2018\CD 1\09 Знай.wav

     Pre-gap length  0:00:02.00

     Peak level 98.8 %
     Extraction speed 1.9 X
     Track quality 100.0 %
     Test CRC 4698F7C1
     Copy CRC 4698F7C1
     Track not present in AccurateRip database
     Copy OK

Track 10

     Filename D:\_МУЗЫКА\Кукрыниксы - Последняя песня [2xCD] 2018\CD 1\10 Кайф.wav

     Pre-gap length  0:00:02.00

     Peak level 98.8 %
     Extraction speed 1.9 X
     Track quality 100.0 %
     Test CRC 970E06E3
     Copy CRC 970E06E3
     Track not present in AccurateRip database
     Copy OK

Track 11

     Filename D:\_МУЗЫКА\Кукрыниксы - Последняя песня [2xCD] 2018\CD 1\11 Наше кино.wav

     Pre-gap length  0:00:02.00

     Peak level 98.8 %
     Extraction speed 2.0 X
     Track quality 100.0 %
     Test CRC C62C3ACE
     Copy CRC C62C3ACE
     Track not present in AccurateRip database
     Copy OK

Track 12

     Filename D:\_МУЗЫКА\Кукрыниксы - Последняя песня [2xCD] 2018\CD 1\12 Звезда.wav

     Pre-gap length  0:00:02.00

     Peak level 100.0 %
     Extraction speed 2.2 X
     Track quality 100.0 %
     Test CRC C54F3C4A
     Copy CRC C54F3C4A
     Track not present in AccurateRip database
     Copy OK

Track 13

     Filename D:\_МУЗЫКА\Кукрыниксы - Последняя песня [2xCD] 2018\CD 1\13 Вертикаль.wav

     Pre-gap length  0:00:02.00

     Peak level 98.8 %
     Extraction speed 2.1 X
     Track quality 100.0 %
     Test CRC D674BB2C
     Copy CRC D674BB2C
     Track not present in AccurateRip database
     Copy OK

Track 14

     Filename D:\_МУЗЫКА\Кукрыниксы - Последняя песня [2xCD] 2018\CD 1\14 Герой.wav

     Pre-gap length  0:00:02.00

     Peak level 98.8 %
     Extraction speed 2.0 X
     Track quality 99.9 %
     Test CRC E5447841
     Copy CRC E5447841
     Track not present in AccurateRip database
     Copy OK

Track 15

     Filename D:\_МУЗЫКА\Кукрыниксы - Последняя песня [2xCD] 2018\CD 1\15 Колдовство.wav

     Pre-gap length  0:00:02.00

     Peak level 98.8 %
     Extraction speed 2.0 X
     Track quality 99.9 %
     Test CRC B9745220
     Copy CRC B9745220
     Track not present in AccurateRip database
     Copy OK

Track 16

     Filename D:\_МУЗЫКА\Кукрыниксы - Последняя песня [2xCD] 2018\CD 1\16 Тёмный город.wav

     Pre-gap length  0:00:02.00

     Peak level 98.8 %
     Extraction speed 2.3 X
     Track quality 100.0 %
     Test CRC 5054246E
     Copy CRC 5054246E
     Track not present in AccurateRip database
     Copy OK

Track 17

     Filename D:\_МУЗЫКА\Кукрыниксы - Последняя песня [2xCD] 2018\CD 1\17 Песня наивного человека.wav

     Pre-gap length  0:00:02.00

     Peak level 98.8 %
     Extraction speed 2.4 X
     Track quality 100.0 %
     Test CRC 8231EB09
     Copy CRC 8231EB09
     Track not present in AccurateRip database
     Copy OK

Track 18

     Filename D:\_МУЗЫКА\Кукрыниксы - Последняя песня [2xCD] 2018\CD 1\18 Крайние меры.wav

     Pre-gap length  0:00:02.00

     Peak level 98.8 %
     Extraction speed 2.5 X
     Track quality 100.0 %
     Test CRC 2AF2EF32
     Copy CRC 2AF2EF32
     Track not present in AccurateRip database
     Copy OK

None of the tracks are present in the AccurateRip database

No errors occurred

End of status report

---- CUETools DB Plugin V2.1.6

[CTDB TOCID: bNAaa241NWeLeNtkDIA2xMZ0938-] found
Submit result: bNAaa241NWeLeNtkDIA2xMZ0938- has been confirmed
Track | CTDB Status
  1   | (1/1) Accurately ripped
  2   | (1/1) Accurately ripped
  3   | (1/1) Accurately ripped
  4   | (1/1) Accurately ripped
  5   | (1/1) Accurately ripped
  6   | (1/1) Accurately ripped
  7   | (1/1) Accurately ripped
  8   | (1/1) Accurately ripped
  9   | (1/1) Accurately ripped
 10   | (1/1) Accurately ripped
 11   | (1/1) Accurately ripped
 12   | (1/1) Accurately ripped
 13   | (1/1) Accurately ripped
 14   | (1/1) Accurately ripped
 15   | (1/1) Accurately ripped
 16   | (1/1) Accurately ripped
 17   | (1/1) Accurately ripped
 18   | (1/1) Accurately ripped

==== Log checksum EA62E82764F4FD5BCA6A86CA37AF96AF1AC0E50C38C5F7D8DEC201454D1FF5C1 ====

Код: Выделить всё
REM GENRE Rock
REM DATE 2018
REM DISCID DF10A112
REM COMMENT "ExactAudioCopy v1.3"
PERFORMER "Кукрыниксы"
TITLE "Последняя песня [CD 1]"
REM COMPOSER ""
FILE "01 Не беда.wav" WAVE
  TRACK 01 AUDIO
    TITLE "Не беда"
    PERFORMER "Кукрыниксы"
    REM COMPOSER ""
    FLAGS DCP
    INDEX 01 00:00:00
  TRACK 02 AUDIO
    TITLE "Солдатская печаль"
    PERFORMER "Кукрыниксы"
    REM COMPOSER ""
    FLAGS DCP
    INDEX 00 03:33:17
FILE "02 Солдатская печаль.wav" WAVE
    INDEX 01 00:00:00
  TRACK 03 AUDIO
    TITLE "По раскрашенной душе"
    PERFORMER "Кукрыниксы"
    REM COMPOSER ""
    FLAGS DCP
    INDEX 00 03:33:46
FILE "03 По раскрашенной душе.wav" WAVE
    INDEX 01 00:00:00
  TRACK 04 AUDIO
    TITLE "Дороги"
    PERFORMER "Кукрыниксы"
    REM COMPOSER ""
    FLAGS DCP
    INDEX 00 03:35:21
FILE "04 Дороги.wav" WAVE
    INDEX 01 00:00:00
  TRACK 05 AUDIO
    TITLE "Творец"
    PERFORMER "Кукрыниксы"
    REM COMPOSER ""
    FLAGS DCP
    INDEX 00 04:10:50
FILE "05 Творец.wav" WAVE
    INDEX 01 00:00:00
  TRACK 06 AUDIO
    TITLE "Столкновение"
    PERFORMER "Кукрыниксы"
    REM COMPOSER ""
    FLAGS DCP
    INDEX 00 03:39:20
FILE "06 Столкновение.wav" WAVE
    INDEX 01 00:00:00
  TRACK 07 AUDIO
    TITLE "Движение"
    PERFORMER "Кукрыниксы"
    REM COMPOSER ""
    FLAGS DCP
    INDEX 00 03:52:15
FILE "07 Движение.wav" WAVE
    INDEX 01 00:00:00
  TRACK 08 AUDIO
    TITLE "Чёрная невеста"
    PERFORMER "Кукрыниксы"
    REM COMPOSER ""
    FLAGS DCP
    INDEX 00 04:34:00
FILE "08 Чёрная невеста.wav" WAVE
    INDEX 01 00:00:00
  TRACK 09 AUDIO
    TITLE "Знай"
    PERFORMER "Кукрыниксы"
    REM COMPOSER ""
    FLAGS DCP
    INDEX 00 04:03:00
FILE "09 Знай.wav" WAVE
    INDEX 01 00:00:00
  TRACK 10 AUDIO
    TITLE "Кайф"
    PERFORMER "Кукрыниксы"
    REM COMPOSER ""
    FLAGS DCP
    INDEX 00 03:52:15
FILE "10 Кайф.wav" WAVE
    INDEX 01 00:00:00
  TRACK 11 AUDIO
    TITLE "Наше кино"
    PERFORMER "Кукрыниксы"
    REM COMPOSER ""
    FLAGS DCP
    INDEX 00 03:00:00
FILE "11 Наше кино.wav" WAVE
    INDEX 01 00:00:00
  TRACK 12 AUDIO
    TITLE "Звезда"
    PERFORMER "Кукрыниксы"
    REM COMPOSER ""
    FLAGS DCP
    INDEX 00 03:45:27
FILE "12 Звезда.wav" WAVE
    INDEX 01 00:00:00
  TRACK 13 AUDIO
    TITLE "Вертикаль"
    PERFORMER "Кукрыниксы"
    REM COMPOSER ""
    FLAGS DCP
    INDEX 00 04:49:00
FILE "13 Вертикаль.wav" WAVE
    INDEX 01 00:00:00
  TRACK 14 AUDIO
    TITLE "Герой"
    PERFORMER "Кукрыниксы"
    REM COMPOSER ""
    FLAGS DCP
    INDEX 00 03:46:74
FILE "14 Герой.wav" WAVE
    INDEX 01 00:00:00
  TRACK 15 AUDIO
    TITLE "Колдовство"
    PERFORMER "Кукрыниксы"
    REM COMPOSER ""
    FLAGS DCP
    INDEX 00 03:59:02
FILE "15 Колдовство.wav" WAVE
    INDEX 01 00:00:00
  TRACK 16 AUDIO
    TITLE "Тёмный город"
    PERFORMER "Кукрыниксы"
    REM COMPOSER ""
    FLAGS DCP
    INDEX 00 04:05:00
FILE "16 Тёмный город.wav" WAVE
    INDEX 01 00:00:00
  TRACK 17 AUDIO
    TITLE "Песня наивного человека"
    PERFORMER "Кукрыниксы"
    REM COMPOSER ""
    FLAGS DCP
    INDEX 00 03:44:63
FILE "17 Песня наивного человека.wav" WAVE
    INDEX 01 00:00:00
  TRACK 18 AUDIO
    TITLE "Крайние меры"
    PERFORMER "Кукрыниксы"
    REM COMPOSER ""
    FLAGS DCP
    INDEX 00 04:14:07
FILE "18 Крайние меры.wav" WAVE
    INDEX 01 00:00:00
Код: Выделить всё
-----------------------

DON'T MODIFY THIS FILE

-----------------------

PERFORMER: auCDtect Task Manager, ver. 1.6.0 RC1 build 1.6.0.1
Copyright (c) 2008-2010 y-soft. All rights reserved
[url=http://y-soft.org]http://y-soft.org[/url]

ANALYZER: auCDtect: CD records authenticity detector, version 0.8.2
Copyright (c) 2004 Oleg Berngardt. All rights reserved.
Copyright (c) 2004 Alexander Djourik. All rights reserved.

FILE: 18 Крайние меры.flac
  Size: 30406994 Hash: 5D931B44EB755C8219269D9B482627DD Accuracy: -m0
  Conclusion: CDDA 100%
  Signature: D55AB7CFCC1BB7D406D29D24593A83C4B47E49FE
FILE: 17 Песня наивного человека.flac
  Size: 31696619 Hash: 1FE8A56E3BF0C17E52CCD4B5AAB45B81 Accuracy: -m0
  Conclusion: CDDA 100%
  Signature: 6D5E271C133CFF64DDAC000C942D86A16E3F77F5
FILE: 16 Тёмный город.flac
  Size: 29709292 Hash: D4FF05EF5512CF9C5BBF651BDCCBBD79 Accuracy: -m0
  Conclusion: CDDA 100%
  Signature: 51DA144FE1907EFEE5E1FCD67BEE01D8C015AF00
FILE: 15 Колдовство.flac
  Size: 30311384 Hash: 927F5E764D4C01305CA61D16EE1B7865 Accuracy: -m0
  Conclusion: CDDA 100%
  Signature: 45FDBD0905AC77E82662A526F0A06A928F2C7BC3
FILE: 14 Герой.flac
  Size: 31463392 Hash: 3693B9FE11661C06F2427C8B40299F77 Accuracy: -m0
  Conclusion: CDDA 100%
  Signature: 1F3DBB4946E7338B870F4CDB25817D3959122A8F
FILE: 13 Вертикаль.flac
  Size: 28788274 Hash: 9C2E00FC7BAF4DA00D6AF783A54627B1 Accuracy: -m0
  Conclusion: CDDA 99%
  Signature: 2768C40C88D40E192DD047C61A36B4C87175589C
FILE: 12 Звезда.flac
  Size: 34557144 Hash: A6248919D8538EA3A4286A7FC748D47D Accuracy: -m0
  Conclusion: CDDA 100%
  Signature: 0CBE3D31CE52A3530124144E7228B67F6E448B00
FILE: 11 Наше кино.flac
  Size: 29483663 Hash: C8EED6840486E1D5522F4A0F752C0040 Accuracy: -m0
  Conclusion: CDDA 100%
  Signature: 57938090D387F9AD2FE914F91ABE27CEB1E38000
FILE: 10 Кайф.flac
  Size: 23508878 Hash: EB09D52685B11AA28D3BA04C0A22E5FC Accuracy: -m0
  Conclusion: CDDA 100%
  Signature: 0B5186B46C2C048FB2DEDDEFBDD095CBDD021CC6
FILE: 09 Знай.flac
  Size: 30945532 Hash: A3324E6282655C1905028D4F1AA3DFE3 Accuracy: -m0
  Conclusion: CDDA 100%
  Signature: 6123DA92BE10B610D65041E0987405FEB2376492
FILE: 08 Чёрная невеста.flac
  Size: 29175966 Hash: 94D0A16F9BBA2439B6A92E6B672E562A Accuracy: -m0
  Conclusion: CDDA 100%
  Signature: 27683F71690A94B5E38C38725D9E27E46AAA666B
FILE: 07 Движение.flac
  Size: 35246559 Hash: 38F7E04DD913C588BEF086B8E22A163E Accuracy: -m0
  Conclusion: CDDA 100%
  Signature: 6588EB18C0B99194C0F362E7ABD559EFCB7C0B80
FILE: 06 Столкновение.flac
  Size: 30351781 Hash: 39C3367F932016FB4E0843245A4B9960 Accuracy: -m0
  Conclusion: CDDA 100%
  Signature: 8E1378D9B3A64DA4A6D85FF27F7FB1F9F4E08A4E
FILE: 05 Творец.flac
  Size: 25360171 Hash: D27F252E58BB5E73E6210C5E5FA523D7 Accuracy: -m0
  Conclusion: CDDA 100%
  Signature: EC0F1552D0221ACEFC8B4623AD7E8C60E93C5E32
FILE: 04 Дороги.flac
  Size: 32282050 Hash: 0FDA5EA0729F98D2E08D93E44CF037CC Accuracy: -m0
  Conclusion: CDDA 100%
  Signature: E562A0E496ED86CBE5F778CFF057361C7CA03BAB
FILE: 03 По раскрашенной душе.flac
  Size: 29845605 Hash: E01CBB219E421E66C0C8C75FE571796B Accuracy: -m0
  Conclusion: CDDA 100%
  Signature: BBF6EE54EE77BAECDC97CC9BBBE3F7D9F09B602A
FILE: 02 Солдатская печаль.flac
  Size: 27393789 Hash: B447E7DEBE2F8997775003E567D04063 Accuracy: -m0
  Conclusion: CDDA 100%
  Signature: 3BD7DE69DAB87848C6F5634669949D9D4D429745
FILE: 01 Не беда.flac
  Size: 28267760 Hash: 0E1DE31F107B68711E94917C31F621F2 Accuracy: -m0
  Conclusion: CDDA 100%
  Signature: 6B12AC755FC26A52AD82B5B6A5BFC8309BC807FF
#77Продолжительность - 01:07:13
Треклист:

01. Никто (3:57)
02. Мой новый мир (3:36)
03. День рождения (3:46)
04. Семидесятники (3:36)
05. ЗЛО (4:05)
06. Колокола (3:18)
07. Полжизни (4:09)
08. Хрустальный мир (4:17)
09. S.O.S. (3:50)
10. Жизнь бывает разная! (3:13)
11. Viva La Revolution (4:34)
12. Вера (4:36)
13. Шторм (4:04)
14. Надежда (4:01)
15. Обнимай (4:17)
16. Смоктуновский (3:50)
17. Последняя песня (4:03)
Код: Выделить всё
Exact Audio Copy V1.3 from 2. September 2016

EAC extraction logfile from 20. May 2018, 16:48

Кукрыниксы / Последняя песня [CD 2]

Used drive  : PIONEER DVD-RW  DVR-218L   Adapter: 1  ID: 0

Read mode               : Secure
Utilize accurate stream : Yes
Defeat audio cache      : Yes
Make use of C2 pointers : No

Read offset correction                      : 6
Overread into Lead-In and Lead-Out          : No
Fill up missing offset samples with silence : Yes
Delete leading and trailing silent blocks   : No
Null samples used in CRC calculations       : Yes
Used interface                              : Native Win32 interface for Win NT & 2000
Gap handling                                : Appended to previous track

Used output format              : User Defined Encoder
Selected bitrate                : 896 kBit/s
Quality                         : High
Add ID3 tag                     : No
Command line compressor         : C:\Program Files (x86)\Exact Audio Copy\Flac\flac.exe
Additional command line options : -V -7 -T "Genre=%genre%" -T "Artist=%artist%" -T "Title=%title%" -T "Album=%albumtitle%" -T "Date=%year%" -T "Tracknumber=%tracknr%" -T "Comment=%comment%" %source%

TOC of the extracted CD

     Track |   Start  |  Length  | Start sector | End sector
    ---------------------------------------------------------
        1  |  0:00.00 |  3:57.17 |         0    |    17791
        2  |  3:57.17 |  3:36.20 |     17792    |    34011
        3  |  7:33.37 |  3:46.02 |     34012    |    50963
        4  | 11:19.39 |  3:35.73 |     50964    |    67161
        5  | 14:55.37 |  4:05.36 |     67162    |    85572
        6  | 19:00.73 |  3:18.11 |     85573    |   100433
        7  | 22:19.09 |  4:09.00 |    100434    |   119108
        8  | 26:28.09 |  4:16.57 |    119109    |   138365
        9  | 30:44.66 |  3:49.74 |    138366    |   155614
       10  | 34:34.65 |  3:12.52 |    155615    |   170066
       11  | 37:47.42 |  4:34.14 |    170067    |   190630
       12  | 42:21.56 |  4:35.74 |    190631    |   211329
       13  | 46:57.55 |  4:03.74 |    211330    |   229628
       14  | 51:01.54 |  4:01.36 |    229629    |   247739
       15  | 55:03.15 |  4:17.00 |    247740    |   267014
       16  | 59:20.15 |  3:49.58 |    267015    |   284247
       17  | 63:09.73 |  4:02.74 |    284248    |   302471

Track  1

     Filename D:\_МУЗЫКА\Кукрыниксы - Последняя песня [2xCD] 2018\CD 2\01 Никто.wav

     Pre-gap length  0:00:02.00

     Peak level 98.8 %
     Extraction speed 1.2 X
     Track quality 100.0 %
     Test CRC 41F9FB24
     Copy CRC 41F9FB24
     Track not present in AccurateRip database
     Copy OK

Track  2

     Filename D:\_МУЗЫКА\Кукрыниксы - Последняя песня [2xCD] 2018\CD 2\02 Мой новый мир.wav

     Pre-gap length  0:00:02.00

     Peak level 98.8 %
     Extraction speed 1.3 X
     Track quality 100.0 %
     Test CRC C162B48C
     Copy CRC C162B48C
     Track not present in AccurateRip database
     Copy OK

Track  3

     Filename D:\_МУЗЫКА\Кукрыниксы - Последняя песня [2xCD] 2018\CD 2\03 День рождения.wav

     Pre-gap length  0:00:02.00

     Peak level 98.9 %
     Extraction speed 1.4 X
     Track quality 100.0 %
     Test CRC 43BEBFFC
     Copy CRC 43BEBFFC
     Track not present in AccurateRip database
     Copy OK

Track  4

     Filename D:\_МУЗЫКА\Кукрыниксы - Последняя песня [2xCD] 2018\CD 2\04 Семидесятники.wav

     Pre-gap length  0:00:02.00

     Peak level 98.9 %
     Extraction speed 1.5 X
     Track quality 100.0 %
     Test CRC 75D8E8FB
     Copy CRC 75D8E8FB
     Track not present in AccurateRip database
     Copy OK

Track  5

     Filename D:\_МУЗЫКА\Кукрыниксы - Последняя песня [2xCD] 2018\CD 2\05 ЗЛО.wav

     Pre-gap length  0:00:02.00

     Peak level 98.8 %
     Extraction speed 1.6 X
     Track quality 100.0 %
     Test CRC B77A1D40
     Copy CRC B77A1D40
     Track not present in AccurateRip database
     Copy OK

Track  6

     Filename D:\_МУЗЫКА\Кукрыниксы - Последняя песня [2xCD] 2018\CD 2\06 Колокола.wav

     Pre-gap length  0:00:02.00

     Peak level 98.8 %
     Extraction speed 1.6 X
     Track quality 100.0 %
     Test CRC EEC9C71F
     Copy CRC EEC9C71F
     Track not present in AccurateRip database
     Copy OK

Track  7

     Filename D:\_МУЗЫКА\Кукрыниксы - Последняя песня [2xCD] 2018\CD 2\07 Полжизни.wav

     Pre-gap length  0:00:02.00

     Peak level 98.8 %
     Extraction speed 1.5 X
     Track quality 99.9 %
     Test CRC AF1F2240
     Copy CRC AF1F2240
     Track not present in AccurateRip database
     Copy OK

Track  8

     Filename D:\_МУЗЫКА\Кукрыниксы - Последняя песня [2xCD] 2018\CD 2\08 Хрустальный мир.wav

     Pre-gap length  0:00:02.00

     Peak level 98.8 %
     Extraction speed 1.8 X
     Track quality 100.0 %
     Test CRC 5734B5DA
     Copy CRC 5734B5DA
     Track not present in AccurateRip database
     Copy OK

Track  9

     Filename D:\_МУЗЫКА\Кукрыниксы - Последняя песня [2xCD] 2018\CD 2\09 S.O.S..wav

     Pre-gap length  0:00:02.00

     Peak level 98.8 %
     Extraction speed 1.9 X
     Track quality 100.0 %
     Test CRC 33AACF04
     Copy CRC 33AACF04
     Track not present in AccurateRip database
     Copy OK

Track 10

     Filename D:\_МУЗЫКА\Кукрыниксы - Последняя песня [2xCD] 2018\CD 2\10 Жизнь бывает разная!.wav

     Pre-gap length  0:00:02.00

     Peak level 98.8 %
     Extraction speed 1.9 X
     Track quality 100.0 %
     Test CRC CABB8E4B
     Copy CRC CABB8E4B
     Track not present in AccurateRip database
     Copy OK

Track 11

     Filename D:\_МУЗЫКА\Кукрыниксы - Последняя песня [2xCD] 2018\CD 2\11 Viva La Revolution.wav

     Pre-gap length  0:00:02.00

     Peak level 98.8 %
     Extraction speed 1.8 X
     Track quality 99.9 %
     Test CRC 34169923
     Copy CRC 34169923
     Track not present in AccurateRip database
     Copy OK

Track 12

     Filename D:\_МУЗЫКА\Кукрыниксы - Последняя песня [2xCD] 2018\CD 2\12 Вера.wav

     Pre-gap length  0:00:02.00

     Peak level 98.8 %
     Extraction speed 2.1 X
     Track quality 100.0 %
     Test CRC 66D10190
     Copy CRC 66D10190
     Track not present in AccurateRip database
     Copy OK

Track 13

     Filename D:\_МУЗЫКА\Кукрыниксы - Последняя песня [2xCD] 2018\CD 2\13 Шторм.wav

     Pre-gap length  0:00:02.00

     Peak level 100.0 %
     Extraction speed 1.9 X
     Track quality 99.9 %
     Test CRC 93A28B6C
     Copy CRC 93A28B6C
     Track not present in AccurateRip database
     Copy OK

Track 14

     Filename D:\_МУЗЫКА\Кукрыниксы - Последняя песня [2xCD] 2018\CD 2\14 Надежда.wav

     Pre-gap length  0:00:02.00

     Peak level 98.8 %
     Extraction speed 2.2 X
     Track quality 100.0 %
     Test CRC 4C5FAEFA
     Copy CRC 4C5FAEFA
     Track not present in AccurateRip database
     Copy OK

Track 15

     Filename D:\_МУЗЫКА\Кукрыниксы - Последняя песня [2xCD] 2018\CD 2\15 Обнимай.wav

     Pre-gap length  0:00:02.00

     Peak level 98.8 %
     Extraction speed 2.3 X
     Track quality 100.0 %
     Test CRC 61BB12B8
     Copy CRC 61BB12B8
     Track not present in AccurateRip database
     Copy OK

Track 16

     Filename D:\_МУЗЫКА\Кукрыниксы - Последняя песня [2xCD] 2018\CD 2\16 Смоктуновский.wav

     Pre-gap length  0:00:02.00

     Peak level 98.8 %
     Extraction speed 2.3 X
     Track quality 100.0 %
     Test CRC 694A5A13
     Copy CRC 694A5A13
     Track not present in AccurateRip database
     Copy OK

Track 17

     Filename D:\_МУЗЫКА\Кукрыниксы - Последняя песня [2xCD] 2018\CD 2\17 Последняя песня.wav

     Pre-gap length  0:00:02.00

     Peak level 98.8 %
     Extraction speed 2.4 X
     Track quality 100.0 %
     Test CRC 209B372B
     Copy CRC 209B372B
     Track not present in AccurateRip database
     Copy OK

None of the tracks are present in the AccurateRip database

No errors occurred

End of status report

---- CUETools DB Plugin V2.1.6

[CTDB TOCID: ZNCafX5N6nP6cYcdA98C2d1TPyk-] found
Submit result: ZNCafX5N6nP6cYcdA98C2d1TPyk- has been confirmed
Track | CTDB Status
  1   | (1/1) Accurately ripped
  2   | (1/1) Accurately ripped
  3   | (1/1) Accurately ripped
  4   | (1/1) Accurately ripped
  5   | (1/1) Accurately ripped
  6   | (1/1) Accurately ripped
  7   | (1/1) Accurately ripped
  8   | (1/1) Accurately ripped
  9   | (1/1) Accurately ripped
 10   | (1/1) Accurately ripped
 11   | (1/1) Accurately ripped
 12   | (1/1) Accurately ripped
 13   | (1/1) Accurately ripped
 14   | (1/1) Accurately ripped
 15   | (1/1) Accurately ripped
 16   | (1/1) Accurately ripped
 17   | (1/1) Accurately ripped

==== Log checksum E7D9CBC0A3DEE782286A248D5E5EA1E29571A95D958327A6800D354C67ED6D33 ====

Код: Выделить всё
REM GENRE Rock
REM DATE 2018
REM DISCID F70FC011
REM COMMENT "ExactAudioCopy v1.3"
PERFORMER "Кукрыниксы"
TITLE "Последняя песня [CD 2]"
REM COMPOSER ""
FILE "01 Никто.wav" WAVE
  TRACK 01 AUDIO
    TITLE "Никто"
    PERFORMER "Кукрыниксы"
    REM COMPOSER ""
    FLAGS DCP
    INDEX 01 00:00:00
  TRACK 02 AUDIO
    TITLE "Мой новый мир"
    PERFORMER "Кукрыниксы"
    REM COMPOSER ""
    FLAGS DCP
    INDEX 00 03:55:17
FILE "02 Мой новый мир.wav" WAVE
    INDEX 01 00:00:00
  TRACK 03 AUDIO
    TITLE "День рождения"
    PERFORMER "Кукрыниксы"
    REM COMPOSER ""
    FLAGS DCP
    INDEX 00 03:34:20
FILE "03 День рождения.wav" WAVE
    INDEX 01 00:00:00
  TRACK 04 AUDIO
    TITLE "Семидесятники"
    PERFORMER "Кукрыниксы"
    REM COMPOSER ""
    FLAGS DCP
    INDEX 00 03:44:02
FILE "04 Семидесятники.wav" WAVE
    INDEX 01 00:00:00
  TRACK 05 AUDIO
    TITLE "ЗЛО"
    PERFORMER "Кукрыниксы"
    REM COMPOSER ""
    FLAGS DCP
    INDEX 00 03:33:73
FILE "05 ЗЛО.wav" WAVE
    INDEX 01 00:00:00
  TRACK 06 AUDIO
    TITLE "Колокола"
    PERFORMER "Кукрыниксы"
    REM COMPOSER ""
    FLAGS DCP
    INDEX 00 04:03:36
FILE "06 Колокола.wav" WAVE
    INDEX 01 00:00:00
  TRACK 07 AUDIO
    TITLE "Полжизни"
    PERFORMER "Кукрыниксы"
    REM COMPOSER ""
    FLAGS DCP
    INDEX 00 03:16:11
FILE "07 Полжизни.wav" WAVE
    INDEX 01 00:00:00
  TRACK 08 AUDIO
    TITLE "Хрустальный мир"
    PERFORMER "Кукрыниксы"
    REM COMPOSER ""
    FLAGS DCP
    INDEX 00 04:07:00
FILE "08 Хрустальный мир.wav" WAVE
    INDEX 01 00:00:00
  TRACK 09 AUDIO
    TITLE "S.O.S."
    PERFORMER "Кукрыниксы"
    REM COMPOSER ""
    FLAGS DCP
    INDEX 00 04:14:57
FILE "09 S.O.S..wav" WAVE
    INDEX 01 00:00:00
  TRACK 10 AUDIO
    TITLE "Жизнь бывает разная!"
    PERFORMER "Кукрыниксы"
    REM COMPOSER ""
    FLAGS DCP
    INDEX 00 03:47:74
FILE "10 Жизнь бывает разная!.wav" WAVE
    INDEX 01 00:00:00
  TRACK 11 AUDIO
    TITLE "Viva La Revolution"
    PERFORMER "Кукрыниксы"
    REM COMPOSER ""
    FLAGS DCP
    INDEX 00 03:10:52
FILE "11 Viva La Revolution.wav" WAVE
    INDEX 01 00:00:00
  TRACK 12 AUDIO
    TITLE "Вера"
    PERFORMER "Кукрыниксы"
    REM COMPOSER ""
    FLAGS DCP
    INDEX 00 04:32:14
FILE "12 Вера.wav" WAVE
    INDEX 01 00:00:00
  TRACK 13 AUDIO
    TITLE "Шторм"
    PERFORMER "Кукрыниксы"
    REM COMPOSER ""
    FLAGS DCP
    INDEX 00 04:33:74
FILE "13 Шторм.wav" WAVE
    INDEX 01 00:00:00
  TRACK 14 AUDIO
    TITLE "Надежда"
    PERFORMER "Кукрыниксы"
    REM COMPOSER ""
    FLAGS DCP
    INDEX 00 04:01:74
FILE "14 Надежда.wav" WAVE
    INDEX 01 00:00:00
  TRACK 15 AUDIO
    TITLE "Обнимай"
    PERFORMER "Кукрыниксы"
    REM COMPOSER ""
    FLAGS DCP
    INDEX 00 03:59:36
FILE "15 Обнимай.wav" WAVE
    INDEX 01 00:00:00
  TRACK 16 AUDIO
    TITLE "Смоктуновский"
    PERFORMER "Кукрыниксы"
    REM COMPOSER ""
    FLAGS DCP
    INDEX 00 04:15:00
FILE "16 Смоктуновский.wav" WAVE
    INDEX 01 00:00:00
  TRACK 17 AUDIO
    TITLE "Последняя песня"
    PERFORMER "Кукрыниксы"
    REM COMPOSER ""
    FLAGS DCP
    INDEX 00 03:47:58
FILE "17 Последняя песня.wav" WAVE
    INDEX 01 00:00:00
Код: Выделить всё
-----------------------

DON'T MODIFY THIS FILE

-----------------------

PERFORMER: auCDtect Task Manager, ver. 1.6.0 RC1 build 1.6.0.1
Copyright (c) 2008-2010 y-soft. All rights reserved
[url=http://y-soft.org]http://y-soft.org[/url]

ANALYZER: auCDtect: CD records authenticity detector, version 0.8.2
Copyright (c) 2004 Oleg Berngardt. All rights reserved.
Copyright (c) 2004 Alexander Djourik. All rights reserved.

FILE: 17 Последняя песня.flac
  Size: 27285591 Hash: 00A51624B1B309C70FA816D9368D3207 Accuracy: -m0
  Conclusion: MPEG 95%
  Signature: 71CF3B3B6E8639FB89D850BFB610AEFC418BDE71
FILE: 16 Смоктуновский.flac
  Size: 30653772 Hash: CE4FF4407BA5A2D856AF09C393720729 Accuracy: -m0
  Conclusion: CDDA 100%
  Signature: D50632BE19CA147FB721C2737DF7B57977E19E8B
FILE: 15 Обнимай.flac
  Size: 34275500 Hash: 3148AAAF28F3CB78A42816DB8267DC80 Accuracy: -m0
  Conclusion: CDDA 100%
  Signature: 3A1195896425CD5E79A8BBFD3CA21907E4B3CA25
FILE: 14 Надежда.flac
  Size: 32216202 Hash: DE5B40E1C8EFF33AD5CF39BA36885E31 Accuracy: -m0
  Conclusion: MPEG 95%
  Signature: 7FD0F633EFEE72070E4DEF8257A9BE5EA092AB44
FILE: 13 Шторм.flac
  Size: 31643105 Hash: 526B3399CA1D5646A2EF6EDE64F942DF Accuracy: -m0
  Conclusion: CDDA 100%
  Signature: 45AD1903B95D7D095C63EB458168F29A54CEC2B4
FILE: 12 Вера.flac
  Size: 32300478 Hash: 004827E1AA8E2BBE5520FEB9657BE3F8 Accuracy: -m0
  Conclusion: CDDA 100%
  Signature: 3D359BFAE2683AC5D1DB0C958D628F9CCF924ED2
FILE: 11 Viva La Revolution.flac
  Size: 35286938 Hash: 3E62675828035E433481ADE5F94CC60C Accuracy: -m0
  Conclusion: CDDA 100%
  Signature: D1D1F6B07C7D3AC2FAA3CCC5D4BBA6868745FC13
FILE: 10 Жизнь бывает разная!.flac
  Size: 25313217 Hash: C3BEEDEC9920A92774AC07EC3B13224C Accuracy: -m0
  Conclusion: CDDA 100%
  Signature: CA30BC668276F2D4FBAA86E31F4E3463AF6C2269
FILE: 09 S.O.S..flac
  Size: 30417728 Hash: 17976529A6AE0519E2297686AA7D4D97 Accuracy: -m0
  Conclusion: CDDA 100%
  Signature: 56F776334B07BBD03BA903065B660BB39F4077F9
FILE: 08 Хрустальный мир.flac
  Size: 33643014 Hash: CE89282D84C4537A1CDE801DEE80C006 Accuracy: -m0
  Conclusion: CDDA 100%
  Signature: 72A8ADADEE9933B598D27DC9D20BDF6942B78320
FILE: 07 Полжизни.flac
  Size: 32664525 Hash: 7FF6505713E47E025D8C42F60D517963 Accuracy: -m0
  Conclusion: CDDA 100%
  Signature: 4BD74B3768B9BF16F7B77E21C52892929E483D6E
FILE: 06 Колокола.flac
  Size: 26811861 Hash: DE0A01B26418411886608B3E4640754D Accuracy: -m0
  Conclusion: CDDA 99%
  Signature: C91D8BC436966648347C1CCE43D656471BB61DBD
FILE: 05 ЗЛО.flac
  Size: 31682265 Hash: 3B92C1DCFFC90F3AB83AD55E4DF832A5 Accuracy: -m0
  Conclusion: CDDA 100%
  Signature: DBC594E1977C25C52BDC65ABCF89B31F467BA1C5
FILE: 04 Семидесятники.flac
  Size: 28077553 Hash: 4C35DF20547BC22DA4E4DC507B4E8FD9 Accuracy: -m0
  Conclusion: CDDA 100%
  Signature: 21DAC2E7753FABCE670C4757989B51C769B2BB1D
FILE: 03 День рождения.flac
  Size: 31158809 Hash: 4FACA3D23B5FE45F297E5801AAF68E74 Accuracy: -m0
  Conclusion: CDDA 100%
  Signature: 69D199C610B1B2D2AB7F144B1A0A627EDBFD618C
FILE: 02 Мой новый мир.flac
  Size: 28179237 Hash: 1F53528E6D899512DB3EE34D856CC7B7 Accuracy: -m0
  Conclusion: CDDA 100%
  Signature: 888ACA962158B3BDB69F65E173B7ED204828F728
FILE: 01 Никто.flac
  Size: 29639844 Hash: 096798EFF33978466F538919D22C3CE5 Accuracy: -m0
  Conclusion: CDDA 99%
  Signature: 03A76FB85569BA81C5CC09428BB39B392A3D9339

Время раздачи: Пн-Пт с 18:00 до 21:00 , Сб-Вс с 09:00 до 21:00 (до появления первых 3-5 скачавших)
Не забывайте говорить Спасибо. Не уходите с раздачи!   
Торрент: Зарегистрирован [24 май 2018, 20:42] Для скачивания .torrent
необходима регистрация
Или скачать с помощью
MediaGet
Статус:
Проверен
 
.torrent скачан: 2 раз
Хэш: 5660c1c25228684ef82984ee1fb1cd997c1d0e12
Размер: 1.06 ГБ (1 139 107 968 байт)
   Стать Автором раздачи
   
Цитата

Вернуться в Rock

Кто сейчас на конференции

Сейчас эту тему просматривают: нет зарегистрированных пользователей и гости: 1