(Soundtrack, Jazz) Платон - Музыка к фильму (Арто Тунчбояджан, Павел Воля, Armenian Navy Band) - 2008, FLAC (tracks+.cue), lossless

 Статистика раздачи 
Размер: 428.79 МБ   |  Зарегистрирован: 02 фев 2013, 00:53   |   .torrent скачан: 2 раз
Сидеров: 15  [ 0 байт/сек ]     Личеров: 28  [ 0 байт/сек ]  
  
Аватара пользователя
Администратор
Администратор
Автор темы
Раздал: 24.47 ТБ
Скачал: 388.83 ГБ
Ратио: 145.334
Сообщения: 5369
Стаж: 7 лет 1 месяц 9 дней
Откуда: Lithuania

Платон - Музыка к фильму



Оригинальное название: Платон - Музыка к фильму
Дата выхода: 2008
Производитель Диска - Лейбл: Армения
Жанр: Soundtrack, Jazz
Формат аудио: FLAC
Битрэйт: lossless
Тип рипа: tracks+.cue
Продолжительность: 01:01:53
Трэклист: [06:13] 01. Jadies And Lentelmen
[05:01] 02. They Left Their Thoughts
[04:26] 03. Aquarium
[06:53] 04. I Am A Misco Dancer
[06:40] 05. Wild Silk
[03:38] 06. Sun Is The Energy Of Nature
[07:34] 07. Some Time Love Makes You Hit Very Heavy Wall
[02:28] 08. Horse Riding In The City
[02:10] 09. Be Careful
[03:01] 10. Think Twice
[01:57] 11. Sense Gives Taste For Mind
[00:50] 12. Dancing Bular's
[10:58] 13. Life Is Deeper Then What You Think

Код: Выделить всё
Exact Audio Copy V0.99 prebeta 5 from 4. May 2009
EAC extraction logfile from 20. February 2010, 11:55
Арто Тунчбояджан, Павел Воля, Armenian Navy Band / Платон (Музыка к фильму)
Used drive  : Optiarc DVD RW AD-7203S   Adapter: 4  ID: 0
Read mode               : Secure
Utilize accurate stream : Yes
Defeat audio cache      : Yes
Make use of C2 pointers : No
Read offset correction                      : 48
Overread into Lead-In and Lead-Out          : No
Fill up missing offset samples with silence : Yes
Delete leading and trailing silent blocks   : No
Null samples used in CRC calculations       : Yes
Used interface                              : Native Win32 interface for Win NT & 2000
Gap handling                                : Appended to previous track
Used output format              : User Defined Encoder
Selected bitrate                : 128 kBit/s
Quality                         : High
Add ID3 tag                     : No
Command line compressor         : C:Program Files (x86)Exact Audio CopyFlacflac.exe
Additional command line options : -8 -V -T "ARTIST=%a" -T "TITLE=%t" -T "ALBUM=%g" -T "DATE=%y" -T "TRACKNUMBER=%n" -T "GENRE=%m" -T "COMMENT=EAC FLAC -8" %s
TOC of the extracted CD
Track |   Start  |  Length  | Start sector | End sector
---------------------------------------------------------
1  |  0:00.00 |  6:13.25 |         0    |    27999
2  |  6:13.25 |  5:01.40 |     28000    |    50614
3  | 11:14.65 |  4:26.15 |     50615    |    70579
4  | 15:41.05 |  6:53.07 |     70580    |   101561
5  | 22:34.12 |  6:40.20 |    101562    |   131581
6  | 29:14.32 |  3:38.00 |    131582    |   147931
7  | 32:52.32 |  7:34.00 |    147932    |   181981
8  | 40:26.32 |  2:28.10 |    181982    |   193091
9  | 42:54.42 |  2:10.35 |    193092    |   202876
10  | 45:05.02 |  3:01.63 |    202877    |   216514
11  | 48:06.65 |  1:57.30 |    216515    |   225319
12  | 50:04.20 |  0:50.50 |    225320    |   229119
13  | 50:54.70 | 10:58.57 |    229120    |   278526
Track  1
Filename C:UsersАдминистраторDesktopПлатон (Музыка к фильму)\01. Арто Тунчбояджан, Павел Воля, Armenian Navy Band – Jadies and Lentelmen.wav
Pre-gap length  0:00:02.00
Peak level 98.6 %
Track quality 100.0 %
Test CRC A5A8CED8
Copy CRC A5A8CED8
Copy OK
Track  2
Filename C:UsersАдминистраторDesktopПлатон (Музыка к фильму)\02. Арто Тунчбояджан, Павел Воля, Armenian Navy Band – They left their thoughts.wav
Peak level 98.8 %
Track quality 100.0 %
Test CRC 9D4E4CEE
Copy CRC 9D4E4CEE
Copy OK
Track  3
Filename C:UsersАдминистраторDesktopПлатон (Музыка к фильму)\03. Арто Тунчбояджан, Павел Воля, Armenian Navy Band – Aquarium.wav
Peak level 97.7 %
Track quality 100.0 %
Test CRC DD6E6774
Copy CRC DD6E6774
Copy OK
Track  4
Filename C:UsersАдминистраторDesktopПлатон (Музыка к фильму)\04. Арто Тунчбояджан, Павел Воля, Armenian Navy Band – I am a misco dancer.wav
Peak level 98.8 %
Track quality 99.9 %
Test CRC 3017DA15
Copy CRC 3017DA15
Copy OK
Track  5
Filename C:UsersАдминистраторDesktopПлатон (Музыка к фильму)\05. Арто Тунчбояджан, Павел Воля, Armenian Navy Band – Wild Silk.wav
Peak level 94.1 %
Track quality 100.0 %
Test CRC A3B8B5AC
Copy CRC A3B8B5AC
Copy OK
Track  6
Filename C:UsersАдминистраторDesktopПлатон (Музыка к фильму)\06. Арто Тунчбояджан, Павел Воля, Armenian Navy Band – Sun is the energy of nature.wav
Peak level 98.8 %
Track quality 100.0 %
Test CRC 7CC8FF67
Copy CRC 7CC8FF67
Copy OK
Track  7
Filename C:UsersАдминистраторDesktopПлатон (Музыка к фильму)\07. Арто Тунчбояджан, Павел Воля, Armenian Navy Band – Some time love makes you hit very heavy wall.wav
Peak level 97.9 %
Track quality 100.0 %
Test CRC C72AFE3B
Copy CRC C72AFE3B
Copy OK
Track  8
Filename C:UsersАдминистраторDesktopПлатон (Музыка к фильму)\08. Арто Тунчбояджан, Павел Воля, Armenian Navy Band – Horse riding in the city.wav
Peak level 89.4 %
Track quality 100.0 %
Test CRC 6B202AA6
Copy CRC 6B202AA6
Copy OK
Track  9
Filename C:UsersАдминистраторDesktopПлатон (Музыка к фильму)\09. Арто Тунчбояджан, Павел Воля, Armenian Navy Band – Be careful.wav
Peak level 86.1 %
Track quality 100.0 %
Test CRC DB9FAA76
Copy CRC DB9FAA76
Copy OK
Track 10
Filename C:UsersАдминистраторDesktopПлатон (Музыка к фильму)10. Арто Тунчбояджан, Павел Воля, Armenian Navy Band – Think twice.wav
Peak level 92.7 %
Track quality 100.0 %
Test CRC 5760AF28
Copy CRC 5760AF28
Copy OK
Track 11
Filename C:UsersАдминистраторDesktopПлатон (Музыка к фильму)11. Арто Тунчбояджан, Павел Воля, Armenian Navy Band – Sense gives taste for mind.wav
Peak level 97.7 %
Track quality 100.0 %
Test CRC 1D0C3759
Copy CRC 1D0C3759
Copy OK
Track 12
Filename C:UsersАдминистраторDesktopПлатон (Музыка к фильму)12. Арто Тунчбояджан, Павел Воля, Armenian Navy Band – Dancing Bular's.wav
Peak level 74.9 %
Track quality 100.0 %
Test CRC F471E71C
Copy CRC F471E71C
Copy OK
Track 13
Filename C:UsersАдминистраторDesktopПлатон (Музыка к фильму)13. Арто Тунчбояджан, Павел Воля, Armenian Navy Band – Life is deeper then what you think.wav
Peak level 92.2 %
Track quality 100.0 %
Test CRC 46EDA728
Copy CRC 46EDA728
Copy OK
No errors occurred
End of status report


Код: Выделить всё
REM GENRE Soundtrack
REM DATE 2008
REM DISCID D00E810D
REM COMMENT "ExactAudioCopy v0.99pb5"
PERFORMER "Арто Тунчбояджан, Павел Воля, Armenian Navy Band"
TITLE "Платон (Музыка к фильму)"
FILE "01. Арто Тунчбояджан, Павел Воля, Armenian Navy Band – Jadies and Lentelmen.wav" WAVE
TRACK 01 AUDIO
TITLE "Jadies and Lentelmen"
PERFORMER "Арто Тунчбояджан, Павел Воля, Armenian Navy Band"
INDEX 01 00:00:00
FILE "02. Арто Тунчбояджан, Павел Воля, Armenian Navy Band – They left their thoughts.wav" WAVE
TRACK 02 AUDIO
TITLE "They left their thoughts"
PERFORMER "Арто Тунчбояджан, Павел Воля, Armenian Navy Band"
INDEX 01 00:00:00
FILE "03. Арто Тунчбояджан, Павел Воля, Armenian Navy Band – Aquarium.wav" WAVE
TRACK 03 AUDIO
TITLE "Aquarium"
PERFORMER "Арто Тунчбояджан, Павел Воля, Armenian Navy Band"
INDEX 01 00:00:00
FILE "04. Арто Тунчбояджан, Павел Воля, Armenian Navy Band – I am a misco dancer.wav" WAVE
TRACK 04 AUDIO
TITLE "I am a misco dancer"
PERFORMER "Арто Тунчбояджан, Павел Воля, Armenian Navy Band"
INDEX 01 00:00:00
FILE "05. Арто Тунчбояджан, Павел Воля, Armenian Navy Band – Wild Silk.wav" WAVE
TRACK 05 AUDIO
TITLE "Wild Silk"
PERFORMER "Арто Тунчбояджан, Павел Воля, Armenian Navy Band"
INDEX 01 00:00:00
FILE "06. Арто Тунчбояджан, Павел Воля, Armenian Navy Band – Sun is the energy of nature.wav" WAVE
TRACK 06 AUDIO
TITLE "Sun is the energy of nature"
PERFORMER "Арто Тунчбояджан, Павел Воля, Armenian Navy Band"
INDEX 01 00:00:00
FILE "07. Арто Тунчбояджан, Павел Воля, Armenian Navy Band – Some time love makes you hit very heavy wall.wav" WAVE
TRACK 07 AUDIO
TITLE "Some time love makes you hit very heavy wall"
PERFORMER "Арто Тунчбояджан, Павел Воля, Armenian Navy Band"
INDEX 01 00:00:00
FILE "08. Арто Тунчбояджан, Павел Воля, Armenian Navy Band – Horse riding in the city.wav" WAVE
TRACK 08 AUDIO
TITLE "Horse riding in the city"
PERFORMER "Арто Тунчбояджан, Павел Воля, Armenian Navy Band"
INDEX 01 00:00:00
FILE "09. Арто Тунчбояджан, Павел Воля, Armenian Navy Band – Be careful.wav" WAVE
TRACK 09 AUDIO
TITLE "Be careful"
PERFORMER "Арто Тунчбояджан, Павел Воля, Armenian Navy Band"
INDEX 01 00:00:00
FILE "10. Арто Тунчбояджан, Павел Воля, Armenian Navy Band – Think twice.wav" WAVE
TRACK 10 AUDIO
TITLE "Think twice"
PERFORMER "Арто Тунчбояджан, Павел Воля, Armenian Navy Band"
INDEX 01 00:00:00
FILE "11. Арто Тунчбояджан, Павел Воля, Armenian Navy Band – Sense gives taste for mind.wav" WAVE
TRACK 11 AUDIO
TITLE "Sense gives taste for mind"
PERFORMER "Арто Тунчбояджан, Павел Воля, Armenian Navy Band"
INDEX 01 00:00:00
FILE "12. Арто Тунчбояджан, Павел Воля, Armenian Navy Band – Dancing Bular's.wav" WAVE
TRACK 12 AUDIO
TITLE "Dancing Bular's"
PERFORMER "Арто Тунчбояджан, Павел Воля, Armenian Navy Band"
INDEX 01 00:00:00
FILE "13. Арто Тунчбояджан, Павел Воля, Armenian Navy Band – Life is deeper then what you think.wav" WAVE
TRACK 13 AUDIO
TITLE "Life is deeper then what you think"
PERFORMER "Арто Тунчбояджан, Павел Воля, Armenian Navy Band"
INDEX 01 00:00:00


Внутри обложки 300dpi.
   
Торрент: Зарегистрирован [02 фев 2013, 00:53] Soundtracks Скачать торрент Магнет ссылка
Скачать торрент
[ Размер 19.4 КБ / Просмотров 165 ]
Статус:
Проверен
 
.torrent скачан: 2 раз
Размер: 428.79 МБ (449 620 967 байт)
   
 
 
Цитата
Аватара пользователя
Главный редактор
Главный редактор
Раздал: 10.09 ТБ
Скачал: 1.76 ТБ
Ратио: 6.148
Сообщения: 3659
Стаж: 7 лет 1 месяц 22 дня
Откуда: Санкт-Петербург
СообщениеДобавлено: 02 фев 2013, 20:42
Респект и уважуха ;)
Цитата

Вернуться в Soundtracks

Кто сейчас на конференции

Сейчас эту тему просматривают: нет зарегистрированных пользователей и гости: 1