Гиперсомния / Hipersomnia (2016) WEBRip 720p | L1

 Статистика раздачи 
Размер: 1.78 ГБ   |  Зарегистрирован: 18 май 2018, 07:45   |   .torrent скачан: 777 раз
Сидеров: 51  [ 0 байт/сек ]     Личеров: 6  [ 0 байт/сек ]  
  
Аватара пользователя
 
Раздал: 1.84 ТБ
Скачал: 4.79 ГБ
Ратио: 393.788
Сообщения: 135172
Стаж: 1 год 2 месяца 4 дня
СообщениеДобавлено: 17 май 2018, 23:57


Информация о фильме
Название: Гиперсомния
Оригинальное название: Hipersomnia
Год выхода: 2016
Жанр: триллер
Режиссер: Гэбриел Греко
В ролях: Yamila Saud, Херардо Романо, Химена Барон, Ванеса Гонсалес, Мария Кандела Ветрано, Флоренция Торренте, Насарено Касеро, София Гала, Густаво Гарсон, Белен Шаванн

О фильме:
Милена хочет стать актрисой и играть на сцене. Не имея опыта и хоть какого-то актёрского образования, она соглашается на сомнительное прослушивание у одного немолодого режиссёра. Во время прослушивания Милена вдруг оказывается в совершенно незнакомом месте, откуда не так просто выбраться.



Страна: Аргентина
Студия: Benteveo Producciones, Estudios CREPUSCULUM, Instituto Nacional de Cine y Artes Audiovisuales (INCAA), MyS Producciones, Television Federal (Telefe)
Продолжительность: 01:24:00
Перевод: Любительский одноголосный, закадровый [BadBajo]

Файл
Кодек: H.264
Качество: WEBRip 720p
Видео: AVC, 1280x536 (2.40:1), 24 fps ~ 2580 Kbps
Звук: AC3, 48 KHz, 6 ch ~ 384 Kb/s
Субтитры: отсутствуют

Общее
Уникальный идентификатор : 185666899056749857417302172199507768543 (0x8BAE24E0F3A780D6A657C6D3312CB4DF)
Полное имя : Q:TorFhypersomnia.2016.720p.webrip.x264_rus_BadBajo.mkv
Формат : Matroska
Версия формата : Version 4 / Version 2
Размер файла : 1,78 Гбайт
Продолжительность : 1 ч. 24 м.
Общий поток : 3025 Кбит/сек
Дата кодирования : UTC 2017-07-24 16:08:38
Программа кодирования : mkvmerge v13.0.0 ('The Juggler') 64bit
Библиотека кодирования : libebml v1.3.4 + libmatroska v1.4.5
DURATION : 01:24:01.216000000
NUMBER_OF_FRAMES : 157538
NUMBER_OF_BYTES : 241978368
_STATISTICS_WRITING_APP : mkvmerge v13.0.0 ('The Juggler') 64bit
_STATISTICS_WRITING_DATE_UTC : 2017-07-24 16:08:38
_STATISTICS_TAGS : BPS DURATION NUMBER_OF_FRAMES NUMBER_OF_BYTES
Attachment : Yes

Видео
Идентификатор : 1
Формат : AVC
Формат/Информация : Advanced Video Codec
Профиль формата : [email protected]
Параметр CABAC формата : Да
Параметр ReFrames формата : 5 кадров
Идентификатор кодека : V_MPEG4/ISO/AVC
Продолжительность : 1 ч. 24 м.
Битрейт : 2581 Кбит/сек
Ширина : 1280 пикселей
Высота : 536 пикселей
Соотношение сторон : 2,40:1
Частота кадров : 24,000 кадра/сек
Цветовое пространство : YUV
Субдискретизация насыщенности : 4:2:0
Битовая глубина : 8 бит
Тип развёртки : Прогрессивная
Бит/(Пиксели*Кадры) : 0.157
Размер потока : 1,51 Гбайт (85%)
Библиотека кодирования : x264 core 152 r2851 ba24899
Настройки программы : cabac=1 / ref=5 / deblock=1:-3:-3 / analyse=0x3:0x113 / me=umh / subme=8 / psy=1 / psy_rd=1.00:0.15 / mixed_ref=1 / me_range=16 / chroma_me=1 / trellis=2 / 8x8dct=1 / cqm=0 / deadzone=21,11 / fast_pskip=0 / chroma_qp_offset=-2 / threads=12 / lookahead_threads=2 / sliced_threads=0 / nr=0 / decimate=1 / interlaced=0 / bluray_compat=0 / constrained_intra=0 / bframes=3 / b_pyramid=2 / b_adapt=1 / b_bias=0 / direct=3 / weightb=1 / open_gop=0 / weightp=2 / keyint=240 / keyint_min=24 / scenecut=40 / intra_refresh=0 / rc=crf / mbtree=0 / crf=18.0 / qcomp=0.60 / qpmin=0 / qpmax=69 / qpstep=4 / ip_ratio=1.40 / pb_ratio=1.30 / aq=3:0.80
Язык : English
Default : Да
Forced : Нет
DURATION : 01:24:00.792000000
NUMBER_OF_FRAMES : 120979
NUMBER_OF_BYTES : 1663136948
_STATISTICS_WRITING_APP : mkvmerge v13.0.0 ('The Juggler') 64bit
_STATISTICS_WRITING_DATE_UTC : 2017-07-24 16:08:38
_STATISTICS_TAGS : BPS DURATION NUMBER_OF_FRAMES NUMBER_OF_BYTES

Аудио
Идентификатор : 2
Формат : AC-3
Формат/Информация : Audio Coding 3
Расширение режима : CM (complete main)
Идентификатор кодека : A_AC3
Продолжительность : 1 ч. 24 м.
Вид битрейта : Постоянный
Битрейт : 384 Кбит/сек
Каналы : 6 каналов
Расположение каналов : Front: L C R, Side: L R, LFE
Частота : 48,0 КГц
Битовая глубина : 16 бит
Метод сжатия : С потерями
Размер потока : 231 Мбайт (13%)
Заголовок : hypersomnia.2016.720p.webrip.x264_rus_BadBajo
Язык : Russian
Default : Да
Forced : Да


Семпл

   
Торрент: Зарегистрирован [18 май 2018, 07:45] Скачать торрент Магнет ссылка
Скачать торрент
[ Размер 18.63 КБ / Просмотров 3 ]
Статус:
Проверен
 
.torrent скачан: 777 раз
Размер: 1.78 ГБ (1 906 239 409 байт)
   Стать Автором раздачи
 
 
Цитата

Вернуться в Зарубежное кино (HD Video)

Кто сейчас на конференции

Сейчас эту тему просматривают: нет зарегистрированных пользователей и гости: 1