Камера / The Chamber (1996) WEB-DL 1080p от KORSAR | P, P2

 Статистика раздачи 
Размер: 10.72 ГБ   |  Зарегистрирован: 18 май 2018, 07:44   |   .torrent скачан: 0 раз
Сидеров: 0  [ 0 байт/сек ]     Личеров: 0  [ 0 байт/сек ]  
  
Аватара пользователя
 
Раздал: 1.84 ТБ
Скачал: 4.79 ГБ
Ратио: 393.788
Сообщения: 135172
Стаж: 1 год 2 месяца 4 дня

Название: Камера
Оригинальное название: The Chamber
Год выпуска: 1996
Выпущено: США, Universal Pictures, Imagine Entertainment
Жанр: Триллер, драма, экранизация
Режиссер: Джеймс Фоули
В ролях: Крис О`Доннелл, Джин Хэкмен, Фэй Данауэй, Роберт Проски, Рэймонд Дж. Бэрри, Бо Джексон, Лила Рошон, Дэвид Маршалл Грант, Николас Прайор, Харви Преснелл

О фильме:
О Доннелл в роли молодого идеалиста-адвоката Эдама Холла, который ведёт дело о помиловании Сэма Кэйхола(Хэкман), бывшего когда-то его наставником в расистской организации, а сейчас сидящего в камере смертников. До приведения в действие смертного приговора остаётся ровно 28 дней, и Эдам начинает скурпулёзно восстанавливать события, приведшие к приступлению, за которое Сэм осужден. По мере приближения рокового дня исполнения приговора Эдам работает быстрее, стремясь раскрыть семейные тайны и отыскать скрытые ключи к разгадке преступления. Головокружительные открытия и неожиданные повороты событий следуют один за другим, и постепенно Эдам раскрывает ложь и мрачные секреты, они, в конце концов, приведут его к сенсационной правде. По роману Джона Гришема.

Продолжительность: 01:52:53
Перевод: Профессиональный многоголосый, профессиональный двухголосый
Субтитры: Русские (на надписи), английские, финские, испанские
Навигация по главам: Есть

Файл
Качество: WEB-DL 1080p
Видео: MPEG-4 AVC, 12,3 Мбит/сек, 1920x1080, 23,976 кадра/сек
Аудио #1: AC3, 2 ch, 192 Кбит/сек | Русский, профессиональный (многоголосый закадровый) 1 канал
Аудио #2: AC3, 2 ch, 192 Кбит/сек | Русский, профессиональный (двухголосый закадровый)
Аудио #3: EAC3, 6 ch, 640 Кбит/сек | Английский, оригинал




Общее
Уникальный идентификатор : 212608947601127007835270011522341070718 (0x9FF2FE6DCDAACD5BA4AFB5DAE2F2E77E)
Полное имя : Камера.1996.WEB-DL.1080p.mkv
Формат : Matroska
Версия формата : Version 2
Размер файла : 10,7 Гбайт
Продолжительность : 1 ч. 52 м.
Режим общего битрейта : Переменный
Общий поток : 13,6 Мбит/сек
Дата кодирования : UTC 2018-05-17 01:59:03
Программа кодирования : mkvmerge v5.8.0 ('No Sleep / Pillow') built on Sep 2 2012 15:37:04
Библиотека кодирования : libebml v1.2.3 + libmatroska v1.3.0

Видео
Идентификатор : 1
Формат : AVC
Формат/Информация : Advanced Video Codec
Профиль формата : [email protected]
Настройки формата : CABAC / 4 Ref Frames
Параметр CABAC формата : Да
Параметр RefFrames формата : 4 кадра
Идентификатор кодека : V_MPEG4/ISO/AVC
Продолжительность : 1 ч. 52 м.
Вид битрейта : Переменный
Битрейт : 12,3 Мбит/сек
Максимальный битрейт : 15,0 Мбит/сек
Ширина : 1920 пикселей
Высота : 1080 пикселей
Соотношение сторон : 16:9
Режим частоты кадров : Постоянный
Частота кадров : 23,976 (24000/1001) кадра/сек
Цветовое пространство : YUV
Субдискретизация насыщенности : 4:2:0
Битовая глубина : 8 бит
Тип развёртки : Прогрессивная
Бит/(Пиксели*Кадры) : 0.247
Размер потока : 9,70 Гбайт (90%)
Язык : English
Default : Да
Forced : Нет
Цветовой диапазон : Limited
Основные цвета : BT.709
Характеристики трансфера : BT.709
Коэффициенты матрицы : BT.709

Аудио #1
Идентификатор : 2
Формат : AC-3
Формат/Информация : Audio Coding 3
Идентификатор кодека : A_AC3
Продолжительность : 1 ч. 52 м.
Вид битрейта : Постоянный
Битрейт : 192 Кбит/сек
Каналы : 2 канала
Расположение каналов : Front: L R
Частота : 48,0 КГц
Частота кадров : 31,250 кадров/сек (1536 SPF)
Битовая глубина : 16 бит
Метод сжатия : С потерями
Размер потока : 155 Мбайт (1%)
Заголовок : MVO | 1 канал
Язык : Russian
По умолчанию : Да
Принудительно : Нет

Аудио #2
Идентификатор : 3
Формат : AC-3
Формат/Информация : Audio Coding 3
Идентификатор кодека : A_AC3
Продолжительность : 1 ч. 52 м.
Вид битрейта : Постоянный
Битрейт : 192 Кбит/сек
Каналы : 2 канала
Расположение каналов : Front: L R
Частота : 48,0 КГц
Частота кадров : 31,250 кадров/сек (1536 SPF)
Битовая глубина : 16 бит
Метод сжатия : С потерями
Размер потока : 155 Мбайт (1%)
Заголовок : DVO
Язык : Russian
По умолчанию : Нет
Принудительно : Нет

Аудио #3
Идентификатор : 4
Формат : E-AC-3
Формат/Информация : Enhanced Audio Coding 3
Идентификатор кодека : A_EAC3
Продолжительность : 1 ч. 52 м.
Вид битрейта : Постоянный
Битрейт : 640 Кбит/сек
Каналы : 6 каналов
Расположение каналов : Front: L C R, Side: L R, LFE
Частота : 48,0 КГц
Частота кадров : 187,500 кадров/сек (256 SPF)
Метод сжатия : С потерями
Размер потока : 517 Мбайт (5%)
Заголовок : Original
Язык : English
По умолчанию : Нет
Принудительно : Нет

Текст #1
Идентификатор : 5
Формат : UTF-8
Идентификатор кодека : S_TEXT/UTF8
Идентификатор кодека/Информация : UTF-8 Plain Text
Заголовок : На надписи
Язык : Russian
По умолчанию : Да
Принудительно : Нет

Текст #2
Идентификатор : 6
Формат : UTF-8
Идентификатор кодека : S_TEXT/UTF8
Идентификатор кодека/Информация : UTF-8 Plain Text
Язык : English
По умолчанию : Нет
Принудительно : Нет

Текст #3
Идентификатор : 7
Формат : UTF-8
Идентификатор кодека : S_TEXT/UTF8
Идентификатор кодека/Информация : UTF-8 Plain Text
Заголовок : SDH
Язык : English
По умолчанию : Нет
Принудительно : Нет

Текст #4
Идентификатор : 8
Формат : UTF-8
Идентификатор кодека : S_TEXT/UTF8
Идентификатор кодека/Информация : UTF-8 Plain Text
Язык : Finnish
По умолчанию : Нет
Принудительно : Нет

Текст #5
Идентификатор : 9
Формат : UTF-8
Идентификатор кодека : S_TEXT/UTF8
Идентификатор кодека/Информация : UTF-8 Plain Text
Язык : Spanish
По умолчанию : Нет
Принудительно : Нет

Меню
00:00:00.000 : en:The Cayhall Case (Main Titles)
00:08:34.359 : en:Hitler's Daughter
00:13:24.359 : en:The New Lawyer
00:26:45.359 : en:The Governor's Options
00:28:48.359 : en:Welcome to Dixie
00:33:38.359 : en:Land of The Secrets
00:37:58.359 : en:I'll Tell You About The Past . . .
00:50:39.359 : en:A New Motion
00:58:31.359 : en:The Sovereignty Commission's Report
01:03:50.359 : en:A Family Picture
01:13:42.359 : en:The Path to "R.W."
01:19:49.359 : en:Forgiveness
01:22:56.359 : en:The Last Appeal
01:33:21.359 : en:The Final Judgment
01:41:36.359 : en:The Chamber
01:47:08.359 : en:Maybe The Ghosts Are Gone (End Titles)

• Исходник видео WEB-DL Amazon.

Сборка:
   
Торрент: Зарегистрирован [18 май 2018, 07:44] Скачать торрент Магнет ссылка
Скачать торрент
[ Размер 54.5 КБ / Просмотров 3 ]
Статус:
Проверен
 
.torrent скачан: 0 раз
Размер: 10.72 ГБ (11 507 357 163 байт)
   Стать Автором раздачи
 
 
Цитата

Вернуться в Зарубежное кино (HD Video)

Кто сейчас на конференции

Сейчас эту тему просматривают: нет зарегистрированных пользователей и гости: 1