Королевская милость / Restoration (1995) WEB-DLRip 720p от KORSAR | P, P2, A

 Статистика раздачи 
Размер: 5.7 ГБ   |  Зарегистрирован: 18 май 2018, 07:44   |   .torrent скачан: 331 раз
Сидеров: 17  [ 0 байт/сек ]     Личеров: 5  [ 0 байт/сек ]  
  
Аватара пользователя
 
Раздал: 1.84 ТБ
Скачал: 4.79 ГБ
Ратио: 393.788
Сообщения: 135172
Стаж: 1 год 2 месяца 4 дня

Название: Королевская милость
Оригинальное название: Restoration
Год выпуска: 1995
Выпущено: США, Великобритания, Avenue Pictures Productions, Miramax Films, Segue Productions
Жанр: Мелодрама, драма, биография, история
Режиссер: Майкл Хоффман
В ролях: Роберт Дауни мл., Сэм Нилл, Дэвид Тьюлис, Полли Уокер, Мег Райан, Иэн МакКеллен, Хью Грант, Иен МакДермид, Мэри МакЛауд, Марк Летерен, Сэнди МакДэйд, Розалинд Беннет, Уилли Росс, Дэвид Гант, Бенжамин Уитроу, Невилл Уотчёрст, Брайан Прингл, Рой Эванс, Джон Кармби, Джон Дэллимор

О фильме:
Английский королевский двор времен реставрации монархии, полный бурлящих страстей и интриг. Молодой студент-медик Роберт Меривел получает место ветеринара королевских собак. Пытаясь защитить свою фаворитку Леди Селию от гнева королевы, Карл Второй предлагает Роберту вступить с ней в фиктивный брак. В награду Роберт получает титулы и поместья, но блеск богатства меркнет рядом с внезапно вспыхнувшей страстью. По роману британской писательницы Роуз Тремейн (Rose Tremain) "Реставрация" (Restoration) 1989 г.

Продолжительность: 01:57:44
Перевод: Профессиональный двухголосый, авторский
Субтитры: Русские, английские, французские
Навигация по главам: Есть

Файл
Качество: WEB-DLRip 720p
Видео: MPEG-4 AVC, 5397 Кбит/сек, 1280x720, 23,976 кадра/сек
Аудио #1: AC3, 6 ch, 448 Кбит/сек | Русский, профессиональный (многоголосый закадровый) Kinolux
Аудио #2: AC3, 6 ch, 448 Кбит/сек | Русский, профессиональный (двухголосый закадровый) R5
Аудио #3: AC3, 2 ch, 192 Кбит/сек | Русский, авторский (одноголосый закадровый) Сергей Визгунов
Аудио #4: AC3, 6 ch, 448 Кбит/сек | Английский, оригинал, R5




Общее
Уникальный идентификатор : 178943730810426112616829293061518221493 (0x869F4F1788245CFA8C8E0995F31D60B5)
Полное имя : Королевская.милость.1995.WEB-DLRip.720p.KORSAR.mkv
Формат : Matroska
Версия формата : Version 2
Размер файла : 5,70 Гбайт
Продолжительность : 1 ч. 57 м.
Общий поток : 6934 Кбит/сек
Дата кодирования : UTC 2018-05-16 17:16:46
Программа кодирования : mkvmerge v5.8.0 ('No Sleep / Pillow') built on Sep 2 2012 15:37:04
Библиотека кодирования : libebml v1.2.3 + libmatroska v1.3.0

Видео
Идентификатор : 1
Формат : AVC
Формат/Информация : Advanced Video Codec
Профиль формата : [email protected]
Настройки формата : CABAC / 8 Ref Frames
Параметр CABAC формата : Да
Параметр RefFrames формата : 8 кадров
Идентификатор кодека : V_MPEG4/ISO/AVC
Продолжительность : 1 ч. 57 м.
Битрейт : 5397 Кбит/сек
Ширина : 1280 пикселей
Высота : 720 пикселей
Соотношение сторон : 16:9
Режим частоты кадров : Постоянный
Частота кадров : 23,976 (24000/1001) кадра/сек
Цветовое пространство : YUV
Субдискретизация насыщенности : 4:2:0
Битовая глубина : 8 бит
Тип развёртки : Прогрессивная
Бит/(Пиксели*Кадры) : 0.244
Размер потока : 4,33 Гбайт (76%)
Заголовок : RIP | MZMA
Библиотека кодирования : x264 core 130 r2273 b3065e6
Настройки программы : cabac=1 / ref=9 / deblock=1:-3:-3 / analyse=0x3:0x133 / me=umh / subme=11 / psy=1 / psy_rd=1.00:0.00 / mixed_ref=1 / me_range=48 / chroma_me=1 / trellis=2 / 8x8dct=1 / cqm=0 / deadzone=21,11 / fast_pskip=1 / chroma_qp_offset=-2 / threads=6 / lookahead_threads=1 / sliced_threads=0 / nr=0 / decimate=1 / interlaced=0 / bluray_compat=0 / constrained_intra=0 / bframes=16 / b_pyramid=1 / b_adapt=2 / b_bias=0 / direct=1 / weightb=1 / open_gop=0 / weightp=2 / keyint=240 / keyint_min=24 / scenecut=40 / intra_refresh=0 / rc_lookahead=60 / rc=2pass / mbtree=1 / bitrate=5397 / ratetol=1.0 / qcomp=0.60 / qpmin=0 / qpmax=69 / qpstep=4 / cplxblur=20.0 / qblur=0.5 / vbv_maxrate=62500 / vbv_bufsize=78125 / nal_hrd=none / ip_ratio=1.40 / aq=1:1.00
Язык : English
Default : Да
Forced : Нет
Цветовой диапазон : Limited
Основные цвета : BT.709
Характеристики трансфера : BT.709
Коэффициенты матрицы : BT.709

Аудио #1
Идентификатор : 2
Формат : AC-3
Формат/Информация : Audio Coding 3
Идентификатор кодека : A_AC3
Продолжительность : 1 ч. 57 м.
Вид битрейта : Постоянный
Битрейт : 448 Кбит/сек
Каналы : 6 каналов
Расположение каналов : Front: L C R, Side: L R, LFE
Частота : 48,0 КГц
Частота кадров : 31,250 кадров/сек (1536 SPF)
Битовая глубина : 16 бит
Метод сжатия : С потерями
Размер потока : 377 Мбайт (6%)
Заголовок : MVO | Kinolux
Язык : Russian
По умолчанию : Да
Принудительно : Нет

Аудио #2
Идентификатор : 3
Формат : AC-3
Формат/Информация : Audio Coding 3
Идентификатор кодека : A_AC3
Продолжительность : 1 ч. 57 м.
Вид битрейта : Постоянный
Битрейт : 448 Кбит/сек
Каналы : 6 каналов
Расположение каналов : Front: L C R, Side: L R, LFE
Частота : 48,0 КГц
Частота кадров : 31,250 кадров/сек (1536 SPF)
Битовая глубина : 16 бит
Метод сжатия : С потерями
Размер потока : 377 Мбайт (6%)
Заголовок : DVO | R5
Язык : Russian
По умолчанию : Нет
Принудительно : Нет

Аудио #3
Идентификатор : 4
Формат : AC-3
Формат/Информация : Audio Coding 3
Идентификатор кодека : A_AC3
Продолжительность : 1 ч. 57 м.
Вид битрейта : Постоянный
Битрейт : 192 Кбит/сек
Каналы : 2 канала
Расположение каналов : Front: L R
Частота : 48,0 КГц
Частота кадров : 31,250 кадров/сек (1536 SPF)
Битовая глубина : 16 бит
Метод сжатия : С потерями
Размер потока : 162 Мбайт (3%)
Заголовок : AVO | С. Визгунов
Язык : Russian
По умолчанию : Нет
Принудительно : Нет

Аудио #4
Идентификатор : 5
Формат : AC-3
Формат/Информация : Audio Coding 3
Идентификатор кодека : A_AC3
Продолжительность : 1 ч. 57 м.
Вид битрейта : Постоянный
Битрейт : 448 Кбит/сек
Каналы : 6 каналов
Расположение каналов : Front: L C R, Side: L R, LFE
Частота : 48,0 КГц
Частота кадров : 31,250 кадров/сек (1536 SPF)
Битовая глубина : 16 бит
Метод сжатия : С потерями
Размер потока : 377 Мбайт (6%)
Заголовок : Original | 5.1, R5
Язык : English
По умолчанию : Нет
Принудительно : Нет

Текст #1
Идентификатор : 6
Формат : UTF-8
Идентификатор кодека : S_TEXT/UTF8
Идентификатор кодека/Информация : UTF-8 Plain Text
Язык : Russian
По умолчанию : Нет
Принудительно : Нет

Текст #2
Идентификатор : 7
Формат : UTF-8
Идентификатор кодека : S_TEXT/UTF8
Идентификатор кодека/Информация : UTF-8 Plain Text
Заголовок : Визгунов | на места без перевода
Язык : Russian
По умолчанию : Нет
Принудительно : Нет

Текст #3
Идентификатор : 8
Формат : UTF-8
Идентификатор кодека : S_TEXT/UTF8
Идентификатор кодека/Информация : UTF-8 Plain Text
Язык : English
По умолчанию : Нет
Принудительно : Нет

Текст #4
Идентификатор : 9
Формат : UTF-8
Идентификатор кодека : S_TEXT/UTF8
Идентификатор кодека/Информация : UTF-8 Plain Text
Язык : French
По умолчанию : Нет
Принудительно : Нет

Меню
00:00:00.000 : en:Chapter 1
00:01:18.000 : en:Chapter 2
00:09:38.000 : en:Chapter 3
00:18:18.000 : en:Chapter 4
00:28:42.000 : en:Chapter 5
00:36:48.000 : en:Chapter 6
00:45:33.000 : en:Chapter 7
00:55:58.000 : en:Chapter 8
01:05:47.000 : en:Chapter 9
01:16:38.000 : en:Chapter 10
01:26:20.000 : en:Chapter 11
01:36:46.000 : en:Chapter 12
01:45:25.000 : en:Chapter 13
01:51:49.000 : en:Chapter 14


В озвучке Сергея Визгунова есть несколько сцен без перевода, на них присутствуют русские форсированные субтитры.

Релиз от:
   
Торрент: Зарегистрирован [18 май 2018, 07:44] Скачать торрент Магнет ссылка
Скачать торрент
[ Размер 29.46 КБ / Просмотров 3 ]
Статус:
Проверен
 
.torrent скачан: 331 раз
Размер: 5.7 ГБ (6 122 520 200 байт)
   Стать Автором раздачи
 
 
Цитата
  • Похожие торренты
    Ответы
    Просмотры
    Последнее сообщение

Вернуться в Зарубежное кино (HD Video)

Кто сейчас на конференции

Сейчас эту тему просматривают: нет зарегистрированных пользователей и гости: 1