Королевская милость / Restoration (1995) WEB-DL 1080p от KORSAR | P, P2, A

 Статистика раздачи 
Размер: 9.52 ГБ   |  Зарегистрирован: 18 май 2018, 07:43   |   .torrent скачан: 19 раз
Сидеров: 36  [ 0 байт/сек ]     Личеров: 4  [ 0 байт/сек ]  
  
Аватара пользователя
 
Раздал: 2.59 ТБ
Скачал: 6.03 ГБ
Ратио: 439.461
Сообщения: 175967
Стаж: 1 год 4 месяца 22 дня

Название: Королевская милость
Оригинальное название: Restoration
Год выпуска: 1995
Выпущено: США, Великобритания, Avenue Pictures Productions, Miramax Films, Segue Productions
Жанр: Мелодрама, драма, биография, история
Режиссер: Майкл Хоффман
В ролях: Роберт Дауни мл., Сэм Нилл, Дэвид Тьюлис, Полли Уокер, Мег Райан, Иэн МакКеллен, Хью Грант, Иен МакДермид, Мэри МакЛауд, Марк Летерен, Сэнди МакДэйд, Розалинд Беннет, Уилли Росс, Дэвид Гант, Бенжамин Уитроу, Невилл Уотчёрст, Брайан Прингл, Рой Эванс, Джон Кармби, Джон Дэллимор

О фильме:
Английский королевский двор времен реставрации монархии, полный бурлящих страстей и интриг. Молодой студент-медик Роберт Меривел получает место ветеринара королевских собак. Пытаясь защитить свою фаворитку Леди Селию от гнева королевы, Карл Второй предлагает Роберту вступить с ней в фиктивный брак. В награду Роберт получает титулы и поместья, но блеск богатства меркнет рядом с внезапно вспыхнувшей страстью. По роману британской писательницы Роуз Тремейн (Rose Tremain) "Реставрация" (Restoration) 1989 г.

Продолжительность: 01:57:44
Перевод: Профессиональный многоголосый, профессиональный двухголосый, авторский
Субтитры: Русские, английские, французские
Навигация по главам: Есть

Файл
Качество: WEB-DL 1080p
Видео: MPEG-4 AVC, 10000 Кбит/сек, 1920x1080, 23,976 кадра/сек
Аудио #1: AC3, 6 ch, 448 Кбит/сек | Русский, профессиональный (многоголосый закадровый) Kinolux
Аудио #2: AC3, 6 ch, 448 Кбит/сек | Русский, профессиональный (двухголосый закадровый) R5
Аудио #3: AC3, 2 ch, 192 Кбит/сек | Русский, авторский (одноголосый закадровый) Сергей Визгунов
Аудио #4: AC3, 6 ch, 448 Кбит/сек | Английский, оригинал, R5
Аудио #5: AAC, 2 ch, 125 Кбит/сек | Английский, оригинал, WEB-DL




Общее
Уникальный идентификатор : 182919666612004505339924417792516385668 (0x899D0BDC94917DBE87FF8B521A096B84)
Полное имя : Королевская.милость.1995.WEB-DL.1080p.mkv
Формат : Matroska
Версия формата : Version 2
Размер файла : 9,52 Гбайт
Продолжительность : 1 ч. 57 м.
Общий поток : 11,6 Мбит/сек
Дата кодирования : UTC 2018-05-16 17:27:26
Программа кодирования : mkvmerge v5.8.0 ('No Sleep / Pillow') built on Sep 2 2012 15:37:04
Библиотека кодирования : libebml v1.2.3 + libmatroska v1.3.0

Видео
Идентификатор : 1
Формат : AVC
Формат/Информация : Advanced Video Codec
Профиль формата : [email protected]
Настройки формата : CABAC / 4 Ref Frames
Параметр CABAC формата : Да
Параметр RefFrames формата : 4 кадра
Идентификатор кодека : V_MPEG4/ISO/AVC
Продолжительность : 1 ч. 57 м.
Вид битрейта : Постоянный
Номинальный битрейт : 10000 Кбит/сек
Ширина : 1920 пикселей
Высота : 1080 пикселей
Соотношение сторон : 16:9
Режим частоты кадров : Постоянный
Частота кадров : 23,976 (24000/1001) кадра/сек
Цветовое пространство : YUV
Субдискретизация насыщенности : 4:2:0
Битовая глубина : 8 бит
Тип развёртки : Прогрессивная
Бит/(Пиксели*Кадры) : 0.201
Язык : English
Default : Да
Forced : Нет
Цветовой диапазон : Limited
Основные цвета : BT.709
Характеристики трансфера : BT.709
Коэффициенты матрицы : BT.709

Аудио #1
Идентификатор : 2
Формат : AC-3
Формат/Информация : Audio Coding 3
Идентификатор кодека : A_AC3
Продолжительность : 1 ч. 57 м.
Вид битрейта : Постоянный
Битрейт : 448 Кбит/сек
Каналы : 6 каналов
Расположение каналов : Front: L C R, Side: L R, LFE
Частота : 48,0 КГц
Частота кадров : 31,250 кадров/сек (1536 SPF)
Битовая глубина : 16 бит
Метод сжатия : С потерями
Размер потока : 377 Мбайт (4%)
Заголовок : MVO | Kinolux
Язык : Russian
По умолчанию : Да
Принудительно : Нет

Аудио #2
Идентификатор : 3
Формат : AC-3
Формат/Информация : Audio Coding 3
Идентификатор кодека : A_AC3
Продолжительность : 1 ч. 57 м.
Вид битрейта : Постоянный
Битрейт : 448 Кбит/сек
Каналы : 6 каналов
Расположение каналов : Front: L C R, Side: L R, LFE
Частота : 48,0 КГц
Частота кадров : 31,250 кадров/сек (1536 SPF)
Битовая глубина : 16 бит
Метод сжатия : С потерями
Размер потока : 377 Мбайт (4%)
Заголовок : DVO | R5
Язык : Russian
По умолчанию : Нет
Принудительно : Нет

Аудио #3
Идентификатор : 4
Формат : AC-3
Формат/Информация : Audio Coding 3
Идентификатор кодека : A_AC3
Продолжительность : 1 ч. 57 м.
Вид битрейта : Постоянный
Битрейт : 192 Кбит/сек
Каналы : 2 канала
Расположение каналов : Front: L R
Частота : 48,0 КГц
Частота кадров : 31,250 кадров/сек (1536 SPF)
Битовая глубина : 16 бит
Метод сжатия : С потерями
Размер потока : 162 Мбайт (2%)
Заголовок : AVO | С. Визгунов
Язык : Russian
По умолчанию : Нет
Принудительно : Нет

Аудио #4
Идентификатор : 5
Формат : AC-3
Формат/Информация : Audio Coding 3
Идентификатор кодека : A_AC3
Продолжительность : 1 ч. 57 м.
Вид битрейта : Постоянный
Битрейт : 448 Кбит/сек
Каналы : 6 каналов
Расположение каналов : Front: L C R, Side: L R, LFE
Частота : 48,0 КГц
Частота кадров : 31,250 кадров/сек (1536 SPF)
Битовая глубина : 16 бит
Метод сжатия : С потерями
Размер потока : 377 Мбайт (4%)
Заголовок : Original | 5.1, R5
Язык : English
По умолчанию : Нет
Принудительно : Нет

Аудио #5
Идентификатор : 6
Формат : AAC
Формат/Информация : Advanced Audio Codec
Профиль формата : LC
Идентификатор кодека : A_AAC-2
Продолжительность : 1 ч. 57 м.
Каналы : 2 канала
Расположение каналов : Front: L R
Частота : 48,0 КГц
Частота кадров : 46,875 кадров/сек (1024 SPF)
Метод сжатия : С потерями
Заголовок : Original | 2.0, WEB-DL
Язык : English
По умолчанию : Нет
Принудительно : Нет

Текст #1
Идентификатор : 7
Формат : UTF-8
Идентификатор кодека : S_TEXT/UTF8
Идентификатор кодека/Информация : UTF-8 Plain Text
Язык : Russian
По умолчанию : Нет
Принудительно : Нет

Текст #2
Идентификатор : 8
Формат : UTF-8
Идентификатор кодека : S_TEXT/UTF8
Идентификатор кодека/Информация : UTF-8 Plain Text
Заголовок : Визгунов | на места без перевода
Язык : Russian
По умолчанию : Нет
Принудительно : Нет

Текст #3
Идентификатор : 9
Формат : UTF-8
Идентификатор кодека : S_TEXT/UTF8
Идентификатор кодека/Информация : UTF-8 Plain Text
Язык : English
По умолчанию : Нет
Принудительно : Нет

Текст #4
Идентификатор : 10
Формат : UTF-8
Идентификатор кодека : S_TEXT/UTF8
Идентификатор кодека/Информация : UTF-8 Plain Text
Язык : French
По умолчанию : Нет
Принудительно : Нет

Меню
00:00:00.000 : en:Chapter 1
00:01:18.000 : en:Chapter 2
00:09:38.000 : en:Chapter 3
00:18:18.000 : en:Chapter 4
00:28:42.000 : en:Chapter 5
00:36:48.000 : en:Chapter 6
00:45:33.000 : en:Chapter 7
00:55:58.000 : en:Chapter 8
01:05:47.000 : en:Chapter 9
01:16:38.000 : en:Chapter 10
01:26:20.000 : en:Chapter 11
01:36:46.000 : en:Chapter 12
01:45:25.000 : en:Chapter 13
01:51:49.000 : en:Chapter 14

• Исходник видео WEB-DL Amazon.

Сборка:
   
Торрент: Зарегистрирован [18 май 2018, 07:43] Скачать торрент Магнет ссылка
Скачать торрент
[ Размер 48.55 КБ / Просмотров 11 ]
Статус:
Проверен
 
.torrent скачан: 19 раз
Размер: 9.52 ГБ (10 223 475 795 байт)
   Стать Автором раздачи
 
 
Цитата
  • Похожие торренты
    Ответы
    Просмотры
    Последнее сообщение

Вернуться в Зарубежное кино (HD Video)

Кто сейчас на конференции

Сейчас эту тему просматривают: нет зарегистрированных пользователей и гости: 1