Зачётный препод 3 / Fack ju Göhte 3 (2017) BDRip 1080p | iTunes

 Статистика раздачи 
Размер: 13.23 ГБ   |  Зарегистрирован: 18 май 2018, 07:42   |   .torrent скачан: 1651 раз
Сидеров: 150  [ 0 байт/сек ]     Личеров: 53  [ 0 байт/сек ]  
  
Аватара пользователя
 
Раздал: 1.85 ТБ
Скачал: 4.79 ГБ
Ратио: 394.628
Сообщения: 136098
Стаж: 1 год 2 месяца 5 дней

Информация о фильме
Название: Зачётный препод 3
Оригинальное название: Fack ju Göhte 3
Год выхода: 2017
Жанр: Комедия
Режиссер: Бора Дагтекин
В ролях: Элиас ЭмБарек, Катя Риман, Йелла Хаазе, Сандра Хюллер, Макс фон Гробен, Уши Глас, Гизем Эмре, Арам Арами, Лукас Райбер, Руна Грайнер

О фильме:
Классному руководителю Зэку Мюллеру достался класс с самыми трудными подростками в Германии. Не проходит и дня, чтобы эти молодые отпрыски чего-нибудь не отмочили. Если бы не криминальное прошлое Зэка, ему бы ни за что с ними не управиться. Но этот год обещает быть особенным. На носу итоговые экзамены, а никто из учеников ни в зуб ногой в материале. А все потому, что накануне с ними побеседовал школьный специалист по профориентации и окончательно отбил у ребят охоту хоть что-то делать. Сумеет ли Зэки помочь ребятам найти мотивацию и вернуть веру в себя?



Страна: Германия
Студия: Constantin Film
Продолжительность: 01:59:31
Перевод: Дублированный | iTunes

Файл
Качество: BDRip 1080p
Формат: MKV
Кодек: MPEG-4 AVC
Видео: 1920x800 (16:9), 24 fps, MPEG-4 AVC ~ 14,0 Мbps avg, 0.378 bit/pixel
Аудио: AC3, 48 kHz, 6 ch, ~384.00 kbps avg | русский | iTunes
Аудио: DTS, 48 kHz, 6 ch, ~1509.00 kbps avg | немецкий | Оригинал

Субтитры: Английские
Семпл
Общее
Уникальный идентификатор : 221202604432484513605897506211519216117 (0xA66A126C51539D59B138E8A9834339F5)
Полное имя : Suck.Me.Shakespeer.3.2017.1080p.BluRay.x264.Rus.Ger.mkv
Формат : Matroska
Версия формата : Version 4 / Version 2
Размер файла : 13,2 Гбайт
Продолжительность : 1 ч. 59 м.
Общий поток : 15,8 Мбит/сек
Название фильма : Зачётный препод 3 (2017)
Дата кодирования : UTC 2018-05-17 20:05:38
Программа кодирования : mkvmerge v9.7.1 ('Pandemonium') 64bit
Библиотека кодирования : libebml v1.3.4 + libmatroska v1.4.5

Видео
Идентификатор : 1
Формат : AVC
Формат/Информация : Advanced Video Codec
Профиль формата : [email protected]
Настройки формата : CABAC / 5 Ref Frames
Параметр CABAC формата : Да
Параметр ReFrames формата : 5 кадров
Идентификатор кодека : V_MPEG4/ISO/AVC
Продолжительность : 1 ч. 59 м.
Битрейт : 14,0 Мбит/сек
Ширина : 1920 пикселей
Высота : 800 пикселей
Соотношение сторон : 2,40:1
Режим частоты кадров : Постоянный
Частота кадров : 24,000 кадра/сек
Цветовое пространство : YUV
Субдискретизация насыщенности : 4:2:0
Битовая глубина : 8 бит
Тип развёртки : Прогрессивная
Бит/(Пиксели*Кадры) : 0.378
Размер потока : 11,6 Гбайт (88%)
Заголовок : Suck.Me.Shakespeer.3.2017.1080p.BluRay.x264.Rus.Ger
Библиотека кодирования : x264 core 155 r2901 7d0ff22
Настройки программы : cabac=1 / ref=5 / deblock=1:-3:-3 / analyse=0x3:0x113 / me=umh / subme=10 / psy=1 / psy_rd=1.02:0.00 / mixed_ref=1 / me_range=32 / chroma_me=1 / trellis=2 / 8x8dct=1 / cqm=0 / deadzone=21,11 / fast_pskip=0 / chroma_qp_offset=-2 / threads=24 / lookahead_threads=4 / sliced_threads=0 / nr=0 / decimate=0 / interlaced=0 / bluray_compat=0 / constrained_intra=0 / bframes=7 / b_pyramid=2 / b_adapt=2 / b_bias=0 / direct=3 / weightb=1 / open_gop=0 / weightp=2 / keyint=240 / keyint_min=24 / scenecut=40 / intra_refresh=0 / rc_lookahead=60 / rc=crf / mbtree=0 / crf=17.4 / qcomp=0.75 / qpmin=0 / qpmax=69 / qpstep=4 / vbv_maxrate=62500 / vbv_bufsize=78125 / crf_max=0.0 / nal_hrd=none / filler=0 / ip_ratio=1.40 / pb_ratio=1.30 / aq=3:0.95 / zones=5482,7236,crf=17/7730,9519,crf=17/23802,24241,crf=17/47585,49632,crf=17/60360,65003,crf=17/76800,80412,crf=17/81817,89423,crf=17/131543,135665,crf=17
Язык : German
Default : Да
Forced : Нет
Цветовой диапазон : Limited
Основные цвета : BT.709
Характеристики трансфера : BT.709
Коэффициенты матрицы : BT.709

Аудио #1
Идентификатор : 2
Формат : AC-3
Формат/Информация : Audio Coding 3
Идентификатор кодека : A_AC3
Продолжительность : 1 ч. 59 м.
Вид битрейта : Постоянный
Битрейт : 384 Кбит/сек
Каналы : 6 каналов
Расположение каналов : Front: L C R, Side: L R, LFE
Частота : 48,0 КГц
Частота кадров : 31,250 кадров/сек (1536 SPF)
Битовая глубина : 16 бит
Метод сжатия : С потерями
Размер потока : 328 Мбайт (2%)
Заголовок : iTunes
Язык : Russian
Default : Да
Forced : Да

Аудио #2
Идентификатор : 3
Формат : DTS
Формат/Информация : Digital Theater Systems
Идентификатор кодека : A_DTS
Продолжительность : 1 ч. 59 м.
Вид битрейта : Постоянный
Битрейт : 1509 Кбит/сек
Каналы : 6 каналов
Расположение каналов : Front: L C R, Side: L R, LFE
Частота : 48,0 КГц
Частота кадров : 93,750 кадра/сек (512 SPF)
Битовая глубина : 24 бит
Метод сжатия : С потерями
Размер потока : 1,26 Гбайт (10%)
Язык : German
Default : Нет
Forced : Нет

Текст
Идентификатор : 4
Формат : UTF-8
Идентификатор кодека : S_TEXT/UTF8
Идентификатор кодека/Информация : UTF-8 Plain Text
Продолжительность : 1 ч. 58 м.
Битрейт : 67 бит/сек
ElementCount : 1615
Размер потока : 58,9 Кбайт (0%)
Заголовок : srt
Язык : English
Default : Нет
Forced : Нет

Меню #1
00:00:00.000 : en:00:00:00.000
00:06:36.708 : en:00:06:36.708
00:13:36.208 : en:00:13:36.208
00:20:23.500 : en:00:20:23.500
00:26:20.625 : en:00:26:20.625
00:34:28.083 : en:00:34:28.083
00:41:55.042 : en:00:41:55.042
00:48:43.333 : en:00:48:43.333
00:53:18.625 : en:00:53:18.625
00:56:49.083 : en:00:56:49.083
01:03:32.417 : en:01:03:32.417
01:06:54.417 : en:01:06:54.417
01:15:22.208 : en:01:15:22.208
01:22:21.042 : en:01:22:21.042
01:28:53.750 : en:01:28:53.750
01:35:47.458 : en:01:35:47.458
01:41:42.292 : en:01:41:42.292
01:49:58.750 : en:01:49:58.750

Меню #2
00:00:00.097 : en:00:00:00.097 / en:00:00:00.097
   
Торрент: Зарегистрирован [18 май 2018, 07:42] Скачать торрент Магнет ссылка
Скачать торрент
[ Размер 33.97 КБ / Просмотров 18 ]
Статус:
Проверен
 
.torrent скачан: 1651 раз
Размер: 13.23 ГБ (14 206 131 158 байт)
   Стать Автором раздачи
 
 
Цитата

Вернуться в Зарубежное кино (HD Video)

Кто сейчас на конференции

Сейчас эту тему просматривают: нет зарегистрированных пользователей и гости: 1