На несколько долларов больше / For A Few Dollars More (1965) BDRip 1080p | GER Transfer | P, A | Uncut version

 Статистика раздачи 
Размер: 21.03 ГБ   |  Зарегистрирован: 18 май 2018, 07:40   |   .torrent скачан: 96 раз
Сидеров: 8  [ 0 байт/сек ]     Личеров: 7  [ 0 байт/сек ]  
  
Аватара пользователя
 
Раздал: 1.85 ТБ
Скачал: 4.79 ГБ
Ратио: 394.646
Сообщения: 136098
Стаж: 1 год 2 месяца 5 дней

Информация о фильме
Название: На несколько долларов больше
Оригинальное название: For A Few Dollars More
Год выхода: 1965
Жанр: Вестерн, боевик
Режиссер: Серджио Леоне
В ролях: Клинт Иствуд, Ли Ван Клиф, Джан Мария Волонте, Мара Крупп, Луиджи Пистилли, Клаус Кински, Йозеф Эггер, Панос Пападопулос, Бенито Стефанелли, Роберто Камардьель

О фильме:
В центре фильма — два «охотника за головами» ищущие на Диком Западе бандитов, отставной полковник армии конфедератов, Дуглас Мортимер (его играет Ли Ван Клиф), и мастерски орудующий пистолетом одной рукой блондин по прозвищу Однорукий (Mancо; его играет Клинт Иствуд). Их пути пересекаются во время охоты за Индейцем (El Indio) — бежавшим из тюрьмы главарём банды, который осуществляет ограбление банка в Эль-Пасо. Этому персонажу свойственны пристрастие к марихуане, немотированные приступы хохота и безумный взгляд, сопровождающий воспоминания о некогда учинённой им зверской расправе над семейной парой. Пропущенный через фильм музыкальный мотив звона карманных часов намекает на то, что та девушка, память об изнасиловании и самоубийстве которой жжёт душу Индейца, приходилась полковнику сестрой.


Страна: Италия, Испания, Германия (ФРГ)
Студия: Arturo González Producciones Cinematográficas S.A., Constantin Film Produktion GmbH, Produzioni Europee Associati (PEA)
Продолжительность: 02:12:49
Перевод: Профессиональный многоголосый, авторский

Файл
Кодек: x264
Качество: BDRip 1080p
Видео: MPEG-4 AVC, 20.6 Мбит/с, 1916x814
Звук #1: AC3, 6 ch, 448 Кбит/с | Профессиональный многоголосый (SomeWax)
Звук #2: AC3, 2 ch, 256 Кбит/с | Профессиональный многоголосый
Звук #3: AC3, 2 ch, 256 Кбит/с | Авторский (А.Гаврилов)
Звук #4: AC3, 6 ch, 640 Кбит/с | Английский
Субтитры: Русские, английские


Формат : Matroska
Версия формата : Version 2
Размер файла : 21,0 Гбайт
Продолжительность : 2 ч. 12 м.
Общий поток : 22,7 Мбит/сек
Название фильма : For.a.Few.Dollars.More.1965.UNCUT.1080p.BluRay.[zzZGVvv]
Дата кодирования : UTC 2018-05-17 14:50:43
Программа кодирования : mkvmerge v5.8.0 ('No Sleep / Pillow') built on Sep 2 2012 15:37:04
Библиотека кодирования : libebml v1.2.3 + libmatroska v1.3.0
Attachements : cover.png

Видео
Идентификатор : 1
Формат : AVC
Формат/Информация : Advanced Video Codec
Профиль формата : [email protected]
Параметр CABAC формата : Да
Параметр ReFrames формата : 5 кадров
Идентификатор кодека : V_MPEG4/ISO/AVC
Продолжительность : 2 ч. 12 м.
Битрейт : 20,6 Мбит/сек
Ширина : 1916 пикселей
Высота : 814 пикселей
Соотношение сторон : 2,35:1
Режим частоты кадров : Постоянный
Частота кадров : 23,976 кадра/сек
Цветовое пространство : YUV
Субдискретизация насыщенности : 4:2:0
Битовая глубина : 8 бит
Тип развёртки : Прогрессивная
Бит/(Пиксели*Кадры) : 0.551
Размер потока : 19,1 Гбайт (91%)
Заголовок : For.a.Few.Dollars.More.1965.UNCUT.1080p.BluRay
Библиотека кодирования : x264 core 130 r2273 b3065e6
Настройки программы : cabac=1 / ref=5 / deblock=1:-3:-3 / analyse=0x3:0x133 / me=tesa / subme=10 / psy=1 / psy_rd=1.00:0.00 / mixed_ref=1 / me_range=24 / chroma_me=1 / trellis=2 / 8x8dct=1 / cqm=0 / deadzone=21,11 / fast_pskip=0 / chroma_qp_offset=-2 / threads=12 / lookahead_threads=2 / sliced_threads=0 / nr=0 / decimate=0 / interlaced=0 / bluray_compat=0 / constrained_intra=0 / bframes=8 / b_pyramid=2 / b_adapt=2 / b_bias=0 / direct=3 / weightb=1 / open_gop=0 / weightp=2 / keyint=250 / keyint_min=23 / scenecut=40 / intra_refresh=0 / rc_lookahead=60 / rc=crf / mbtree=1 / crf=20.0 / qcomp=0.75 / qpmin=0 / qpmax=69 / qpstep=4 / vbv_maxrate=50000 / vbv_bufsize=62500 / crf_max=0.0 / nal_hrd=none / ip_ratio=1.40 / aq=1:0.50
Язык : English
Default : Да
Forced : Нет

Аудио #1
Идентификатор : 2
Формат : AC-3
Формат/Информация : Audio Coding 3
Расширение режима : CM (complete main)
Параметр Endianness формата : Big
Идентификатор кодека : A_AC3
Продолжительность : 2 ч. 12 м.
Вид битрейта : Постоянный
Битрейт : 448 Кбит/сек
Каналы : 6 каналов
Расположение каналов : Front: L C R, Side: L R, LFE
Частота : 48,0 КГц
Метод сжатия : С потерями
Размер потока : 426 Мбайт (2%)
Заголовок : AC3 5.1 448 Kbps [SomeWax]
Язык : Russian
Default : Да
Forced : Нет

Аудио #2
Идентификатор : 3
Формат : AC-3
Формат/Информация : Audio Coding 3
Расширение режима : CM (complete main)
Параметр Endianness формата : Big
Идентификатор кодека : A_AC3
Продолжительность : 2 ч. 12 м.
Вид битрейта : Постоянный
Битрейт : 256 Кбит/сек
Каналы : 2 канала
Расположение каналов : Front: L R
Частота : 48,0 КГц
Метод сжатия : С потерями
Размер потока : 243 Мбайт (1%)
Заголовок : AC3 2.0 256 Kbps [Многоголосый]
Язык : Russian
Default : Нет
Forced : Нет

Аудио #3
Идентификатор : 4
Формат : AC-3
Формат/Информация : Audio Coding 3
Расширение режима : CM (complete main)
Параметр Endianness формата : Big
Идентификатор кодека : A_AC3
Продолжительность : 2 ч. 12 м.
Вид битрейта : Постоянный
Битрейт : 256 Кбит/сек
Каналы : 2 канала
Расположение каналов : Front: L R
Частота : 48,0 КГц
Метод сжатия : С потерями
Размер потока : 243 Мбайт (1%)
Заголовок : AC3 2.0 256 Kbps [Гаврилов]
Язык : Russian
Default : Нет
Forced : Нет

Аудио #4
Идентификатор : 5
Формат : AC-3
Формат/Информация : Audio Coding 3
Расширение режима : CM (complete main)
Параметр Endianness формата : Big
Идентификатор кодека : A_AC3
Продолжительность : 2 ч. 12 м.
Вид битрейта : Постоянный
Битрейт : 640 Кбит/сек
Каналы : 6 каналов
Расположение каналов : Front: L C R, Side: L R, LFE
Частота : 48,0 КГц
Метод сжатия : С потерями
Размер потока : 608 Мбайт (3%)
Заголовок : Original
Язык : English
Default : Нет
Forced : Нет

Текст #1
Идентификатор : 6
Формат : UTF-8
Идентификатор кодека : S_TEXT/UTF8
Идентификатор кодека/Информация : UTF-8 Plain Text
Язык : Russian
Default : Нет
Forced : Нет

Текст #2
Идентификатор : 7
Формат : UTF-8
Идентификатор кодека : S_TEXT/UTF8
Идентификатор кодека/Информация : UTF-8 Plain Text
Язык : English
Default : Нет
Forced : Нет

Меню
00:00:00.000 : en:Opening Sequence
00:04:28.310 : en:Unscheduled Stop
00:06:59.419 : en:"Where Is He?"
00:09:09.382 : en:Showdown
00:12:45.431 : en:Monco
00:16:45.880 : en:Brute Justice
00:18:58.554 : en:Prison Coup
00:24:11.075 : en:Rewards & Revenge
00:30:05.012 : en:Shopping for a Bank
00:31:22.089 : en:El Paso
00:35:59.282 : en:Making Plans
00:40:37.727 : en:Mortimer's Deposit
00:42:28.463 : en:Mortimer's Match
00:45:03.159 : en:Checking Each Other Out
00:52:05.539 : en:They Meet
00:57:48.173 : en:They Drink
01:02:35.543 : en:A Haunting Memory
01:04:21.900 : en:Breakout/Infiltration
01:08:43.494 : en:"You Have to Die"
01:10:46.496 : en:The Telegraph Trail
01:14:50.364 : en:Indio Arrives
01:21:02.778 : en:The Withdrawal/"North"
01:24:24.897 : en:Monco Returns/"South"
01:27:45.597 : en:At Agua Caliente
01:31:02.533 : en:"Remember Me, Amigo?"
01:36:34.281 : en:Found Out
01:44:59.619 : en:An Arranged Escape
01:51:35.043 : en:The Bounty Killers
01:54:52.616 : en:Monco's Ruse
01:58:57.485 : en:The Watch
02:02:26.236 : en:When the Chimes End...
02:07:47.849 : en:Parting Ways/"27"

   
Торрент: Зарегистрирован [18 май 2018, 07:40] Скачать торрент Магнет ссылка
Скачать торрент
[ Размер 106.2 КБ / Просмотров 3 ]
Статус:
Проверен
 
.torrent скачан: 96 раз
Размер: 21.03 ГБ (22 582 954 033 байт)
   Стать Автором раздачи
 
 
Цитата
  • Похожие торренты
    Ответы
    Просмотры
    Последнее сообщение

Вернуться в Классика зарубежного кино (DVD, DVDRip, HD Video)

Кто сейчас на конференции

Сейчас эту тему просматривают: нет зарегистрированных пользователей и гости: 1