Хоккей. НХЛ 2017-2018. Кубок Стэнли. 1/2 финала. Финал - Западной конференции. 1-й матч. Виннипег Джетс – Вегас Голден Найтс (12.05.2018) HDTVRip [H.264/720p-LQ] [hand made 50fps]

Regular season (Чемпионат) и Stanley Cup (Кубок Стэнли); AHL...
 Статистика раздачи 
Размер: 2.85 ГБ   |  Зарегистрирован: 17 май 2018, 20:48   |   .torrent скачан: 2 раз
Сидеров: 2  [ 0 байт/сек ]     Личеров: 244  [ 0 байт/сек ]  
  
Аватара пользователя
 
Раздал: 1.55 ТБ
Скачал: 30.55 ГБ
Ратио: 51.924
Сообщения: 179532
Стаж: 2 года 5 месяцев 13 дней

Хоккей. НХЛ 2017-2018. Кубок Стэнли. 1/2 финала. Финал - Западной конференции. 1-й матч. Виннипег Джетс – Вегас Голден Найтс (12.05.2018) HDTVRip [H.264/720p-LQ]

Телекомпания: Eurosport Gold
Жанр: Спорт

Комментатор: Олег Мосалев

Описание: 13 мая 2018 года, воскресенье. 02:00 МСК
НХЛ 2017-2018. Кубок Стэнли. 1/2 финала. Финал - Запад. 1-й матч
Виннипег Джетс – Вегас Голден Найтс
Стадион: Белл Эм-Ти-Эс Плэйс (Виннипег, Канада), 15321 зритель (100 % при вместимости 15321)
Главные судьи: Эрик Фурлатт (Канада), Келли Сазерлэнд (Канада)
Судьи на линии: Майкл Комье, Дерек Эмилл

Релиз от: Тотти17879

Продолжительность: 01:52:29
Качество видео: HDTVRip
Язык озвучки: Русский
Субтитры: отсутствуют

Видео: AVC/H.264, 1280x720 (16:9), ~3500 Kbps, 50 fps
Аудио: AAC, 2 ch, 48 kHz, 128 Kbps
Код: выделить все
Общее
Уникальный идентификатор                 : 196665981967025917347242317386472299636 (0x93F47D88F893315F94655ED1B8411C74)
Полное имя                               : F:\SPORT\Хоккей\NHL 2017-2018\(12.05.2018)_NHL 2017-2018.FW.1. Vegas Golden Knights-Winnipeg Jets.mkv
Формат                                   : Matroska
Версия формата                           : Version 4 / Version 2
Размер файла                             : 2,85 Гбайт
Продолжительность                        : 1 ч. 52 м.
Общий поток                              : 3629 Кбит/сек
Дата кодирования                         : UTC 2018-05-13 01:04:55
Программа кодирования                    : mkvmerge v8.3.0 ('Over the Horizon') 64bit
Библиотека кодирования                   : libebml v1.3.1 + libmatroska v1.4.2

Видео
Идентификатор                            : 1
Формат                                   : AVC
Формат/Информация                        : Advanced Video Codec
Профиль формата                          : High@L3.2
Настройки формата                        : CABAC / 4 Ref Frames
Параметр CABAC формата                   : Да
Параметр RefFrames формата               : 4 кадра
Идентификатор кодека                     : V_MPEG4/ISO/AVC
Продолжительность                        : 1 ч. 52 м.
Битрейт                                  : 3500 Кбит/сек
Ширина                                   : 1280 пикселей
Высота                                   : 720 пикселей
Соотношение сторон                       : 16:9
Режим частоты кадров                     : Постоянный
Частота кадров                           : 50,000 кадров/сек
Цветовое пространство                    : YUV
Субдискретизация насыщенности            : 4:2:0
Битовая глубина                          : 8 бит
Тип развёртки                            : Прогрессивная
Бит/(Пиксели*Кадры)                      : 0.076
Размер потока                            : 2,75 Гбайт (96%)
Библиотека кодирования                   : x264 core 146 r2538 121396c
Настройки программы                      : cabac=1 / ref=3 / deblock=1:0:0 / analyse=0x3:0x113 / me=hex / subme=7 / psy=1 / psy_rd=1.00:0.00 / mixed_ref=1 / me_range=16 / chroma_me=1 / trellis=1 / 8x8dct=1 / cqm=0 / deadzone=21,11 / fast_pskip=1 / chroma_qp_offset=-2 / threads=12 / lookahead_threads=2 / sliced_threads=0 / nr=0 / decimate=1 / interlaced=0 / bluray_compat=0 / constrained_intra=0 / bframes=3 / b_pyramid=2 / b_adapt=1 / b_bias=0 / direct=1 / weightb=1 / open_gop=0 / weightp=2 / keyint=250 / keyint_min=25 / scenecut=40 / intra_refresh=0 / rc_lookahead=40 / rc=abr / mbtree=1 / bitrate=3500 / ratetol=1.0 / qcomp=0.60 / qpmin=0 / qpmax=69 / qpstep=4 / ip_ratio=1.40 / aq=1:1.00
Default                                  : Да
Forced                                   : Нет

Аудио
Идентификатор                            : 2
Формат                                   : AAC
Формат/Информация                        : Advanced Audio Codec
Профиль формата                          : LC
Идентификатор кодека                     : A_AAC-2
Продолжительность                        : 1 ч. 52 м.
Битрейт                                  : 128 Кбит/сек
Каналы                                   : 2 канала
Расположение каналов                     : Front: L R
Частота                                  : 48,0 КГц
Частота кадров                           : 46,875 кадров/сек (1024 SPF)
Метод сжатия                             : С потерями
Задержка видео                           : 9 мс.
Размер потока                            : 103 Мбайт (4%)
Default                                  : Да
Forced                                   : Нет


Скриншоты:




Время раздачи: 24/7 (около 1 месяца)
Не забывайте говорить Спасибо. Не уходите с раздачи!   
Торрент: Зарегистрирован [17 май 2018, 20:48] Для скачивания .torrent
необходима регистрация
Или скачать с помощью
MediaGet
Статус:
Проверен
 
.torrent скачан: 2 раз
Хэш: ae2975fc55c5ce6ba4ba20b10fbd149035e43388
Размер: 2.85 ГБ (3 061 555 189 байт)
   Стать Автором раздачи
   
Цитата
  • Похожие торренты
    Ответы
    Просмотры
    Последнее сообщение

Вернуться в НХЛ (с 2013)

Кто сейчас на конференции

Сейчас эту тему просматривают: нет зарегистрированных пользователей и гости: 1