(Soundtrack) VA - Lollipop Chainsaw: Music From The Video Game - 2012, FLAC (tracks+.cue), lossless

 Статистика раздачи 
Размер: 309.24 МБ   |  Зарегистрирован: 26 дек 2012, 00:23   |   .torrent скачан: 0 раз
Сидеров: 3  [ 0 байт/сек ]     Личеров: 0  [ 0 байт/сек ]  
  
Аватара пользователя
Администратор
Администратор
Автор темы
Раздал: 24.47 ТБ
Скачал: 388.83 ГБ
Ратио: 145.334
Сообщения: 5369
Стаж: 7 лет 1 месяц 9 дней
Откуда: Lithuania

VA - Lollipop Chainsaw: Music From The Video Game


Оригинальное название: VA - Lollipop Chainsaw: Music From The Video Game
Дата выхода: 2012
Страна: US
Производитель Диска - Лейбл: WaterTower Music
Жанр: Soundtrack
Формат аудио: FLAC
Битрэйт: lossless
Тип рипа: tracks+.cue
Продолжительность: 00:43:35
Трэклист: 01 - The Chordettes - Lollipop
02 - Arch Enemy - Nemesis
03 - Human League - Empire State Human
04 - Various Artists - Stop Reading, Start Doing Pushups
05 - Five Finger Death Punch - The Way Of The Fist (Explicit)
06 - Buckner & Garcia - Pac Man Fever
07 - Akira Yamaoka - Love For My Insane Lover
08 - Akira Yamaoka - Zombie Tackle
09 - Akira Yamaoka - Viking Zombies Sail On Lightning Seas
10 - Akira Yamaoka - Zombie Guts
11 - Akira Yamaoka - Zombeef Burger
12 - Akira Yamaoka - Mirrorball Madhouse
13 - Akira Yamaoka - Rainbow Zombie Fever
14 - Akira Yamaoka - Bowel Purge
15 - Akira Yamaoka - Scattering Guts

Код: Выделить всё
X Lossless Decoder version 20120609 (141.0)
XLD extraction logfile from 2012-08-28 16:50:19 -0400
Various Artists / Lollipop Chainsaw: Music From The Video Game
Used drive : MATSHITA DVD-R   UJ-875 (revision DB09)
Ripper mode             : XLD Secure Ripper
Disable audio cache     : OK for the drive with a cache less than 1375KiB
Make use of C2 pointers : NO
Read offset correction  : 102
Max retry count         : 100
Gap status              : Analyzed, Appended
TOC of the extracted CD
Track |   Start  |  Length  | Start sector | End sector
---------------------------------------------------------
1  | 00:00:00 | 02:08:37 |         0    |     9636
2  | 02:08:37 | 04:12:64 |      9637    |    28600
3  | 06:21:26 | 03:12:19 |     28601    |    43019
4  | 09:33:45 | 02:33:05 |     43020    |    54499
5  | 12:06:50 | 03:59:39 |     54500    |    72463
6  | 16:06:14 | 03:47:42 |     72464    |    89530
7  | 19:53:56 | 03:13:59 |     89531    |   104064
8  | 23:07:40 | 03:49:44 |    104065    |   121283
9  | 26:57:09 | 02:03:10 |    121284    |   130518
10  | 29:00:19 | 02:13:06 |    130519    |   140499
11  | 31:13:25 | 02:00:42 |    140500    |   149541
12  | 33:13:67 | 03:24:12 |    149542    |   164853
13  | 36:38:04 | 03:18:13 |    164854    |   179716
14  | 39:56:17 | 01:48:46 |    179717    |   187862
15  | 41:44:63 | 01:50:38 |    187863    |   196150
AccurateRip Summary
Disc not found in AccurateRip DB.
All Tracks
Album gain               : -9.79 dB
Peak                     : 1.000000
Statistics
Read error                           : 0
Jitter error (maybe fixed)           : 0
Retry sector count                   : 0
Damaged sector count                 : 0
Track 01
Filename : /Users/mo/Music/iTunes/iTunes Music/Various Artists/Lollipop Chainsaw- Music From The Video Game/01 The Chordettes - Lollipop(LAME MP3 (CBR 320kbps)).mp3
/Users/mo/Music/iTunes/iTunes Music/Various Artists/Lollipop Chainsaw- Music From The Video Game/01 The Chordettes - Lollipop.flac
/Users/mo/Music/iTunes/iTunes Music/Various Artists/Lollipop Chainsaw- Music From The Video Game/01 The Chordettes - Lollipop(LAME MP3 (VBR-new quality 0.0)).mp3
Pre-gap length : 00:02:00
Track gain               : -8.12 dB
Peak                     : 0.967834
CRC32 hash (test run)    : 784286F5
CRC32 hash               : 784286F5
CRC32 hash (skip zero)   : 993E6879
AccurateRip v1 signature : 4AB43E7E
AccurateRip v2 signature : E74C2DD9
->Track not present in AccurateRip database.
Statistics
Read error                           : 0
Jitter error (maybe fixed)           : 0
Retry sector count                   : 0
Damaged sector count                 : 0
Track 02
Filename : /Users/mo/Music/iTunes/iTunes Music/Various Artists/Lollipop Chainsaw- Music From The Video Game/02 Arch Enemy - Nemesis(LAME MP3 (CBR 320kbps)).mp3
/Users/mo/Music/iTunes/iTunes Music/Various Artists/Lollipop Chainsaw- Music From The Video Game/02 Arch Enemy - Nemesis.flac
/Users/mo/Music/iTunes/iTunes Music/Various Artists/Lollipop Chainsaw- Music From The Video Game/02 Arch Enemy - Nemesis(LAME MP3 (VBR-new quality 0.0)).mp3
Track gain               : -10.12 dB
Peak                     : 0.977234
CRC32 hash (test run)    : 6E457B0C
CRC32 hash               : 6E457B0C
CRC32 hash (skip zero)   : 3E8451EB
AccurateRip v1 signature : C5C56970
AccurateRip v2 signature : C714393E
->Track not present in AccurateRip database.
Statistics
Read error                           : 0
Jitter error (maybe fixed)           : 0
Retry sector count                   : 0
Damaged sector count                 : 0
Track 03
Filename : /Users/mo/Music/iTunes/iTunes Music/Various Artists/Lollipop Chainsaw- Music From The Video Game/03 Human League - Empire State Human(LAME MP3 (CBR 320kbps)).mp3
/Users/mo/Music/iTunes/iTunes Music/Various Artists/Lollipop Chainsaw- Music From The Video Game/03 Human League - Empire State Human.flac
/Users/mo/Music/iTunes/iTunes Music/Various Artists/Lollipop Chainsaw- Music From The Video Game/03 Human League - Empire State Human(LAME MP3 (VBR-new quality 0.0)).mp3
Track gain               : -8.03 dB
Peak                     : 1.000000
CRC32 hash (test run)    : 99863820
CRC32 hash               : 99863820
CRC32 hash (skip zero)   : 06AA087B
AccurateRip v1 signature : 02A19E0A
AccurateRip v2 signature : E647036D
->Track not present in AccurateRip database.
Statistics
Read error                           : 0
Jitter error (maybe fixed)           : 0
Retry sector count                   : 0
Damaged sector count                 : 0
Track 04
Filename : /Users/mo/Music/iTunes/iTunes Music/Various Artists/Lollipop Chainsaw- Music From The Video Game/04 Various Artists - Stop Reading, Start Doing Pushups(LAME MP3 (CBR 320kbps)).mp3
/Users/mo/Music/iTunes/iTunes Music/Various Artists/Lollipop Chainsaw- Music From The Video Game/04 Various Artists - Stop Reading, Start Doing Pushups.flac
/Users/mo/Music/iTunes/iTunes Music/Various Artists/Lollipop Chainsaw- Music From The Video Game/04 Various Artists - Stop Reading, Start Doing Pushups(LAME MP3 (VBR-new quality 0.0)).mp3
Track gain               : -9.57 dB
Peak                     : 0.954681
CRC32 hash (test run)    : FC9CA41F
CRC32 hash               : FC9CA41F
CRC32 hash (skip zero)   : 8B1724C9
AccurateRip v1 signature : 00F5AE1C
AccurateRip v2 signature : D9A9394C
->Track not present in AccurateRip database.
Statistics
Read error                           : 0
Jitter error (maybe fixed)           : 0
Retry sector count                   : 0
Damaged sector count                 : 0
Track 05
Filename : /Users/mo/Music/iTunes/iTunes Music/Various Artists/Lollipop Chainsaw- Music From The Video Game/05 Five Finger Death Punch - The Way Of The Fist (Explicit)(LAME MP3 (CBR 320kbps)).mp3
/Users/mo/Music/iTunes/iTunes Music/Various Artists/Lollipop Chainsaw- Music From The Video Game/05 Five Finger Death Punch - The Way Of The Fist (Explicit).flac
/Users/mo/Music/iTunes/iTunes Music/Various Artists/Lollipop Chainsaw- Music From The Video Game/05 Five Finger Death Punch - The Way Of The Fist (Explicit)(LAME MP3 (VBR-new quality 0.0)).mp3
Track gain               : -9.25 dB
Peak                     : 0.977234
CRC32 hash (test run)    : DFBA6924
CRC32 hash               : DFBA6924
CRC32 hash (skip zero)   : F2B41426
AccurateRip v1 signature : AFE3C298
AccurateRip v2 signature : ABACF056
->Track not present in AccurateRip database.
Statistics
Read error                           : 0
Jitter error (maybe fixed)           : 0
Retry sector count                   : 0
Damaged sector count                 : 0
Track 06
Filename : /Users/mo/Music/iTunes/iTunes Music/Various Artists/Lollipop Chainsaw- Music From The Video Game/06 Buckner & Garcia - Pac Man Fever(LAME MP3 (CBR 320kbps)).mp3
/Users/mo/Music/iTunes/iTunes Music/Various Artists/Lollipop Chainsaw- Music From The Video Game/06 Buckner & Garcia - Pac Man Fever.flac
/Users/mo/Music/iTunes/iTunes Music/Various Artists/Lollipop Chainsaw- Music From The Video Game/06 Buckner & Garcia - Pac Man Fever(LAME MP3 (VBR-new quality 0.0)).mp3
Track gain               : -11.06 dB
Peak                     : 1.000000
CRC32 hash (test run)    : E7CF0CA9
CRC32 hash               : E7CF0CA9
CRC32 hash (skip zero)   : B0879827
AccurateRip v1 signature : 0A4675AD
AccurateRip v2 signature : 1315F1CF
->Track not present in AccurateRip database.
Statistics
Read error                           : 0
Jitter error (maybe fixed)           : 0
Retry sector count                   : 0
Damaged sector count                 : 0
Track 07
Filename : /Users/mo/Music/iTunes/iTunes Music/Various Artists/Lollipop Chainsaw- Music From The Video Game/07 Akira Yamaoka - Love For My Insane Lover(LAME MP3 (CBR 320kbps)).mp3
/Users/mo/Music/iTunes/iTunes Music/Various Artists/Lollipop Chainsaw- Music From The Video Game/07 Akira Yamaoka - Love For My Insane Lover.flac
/Users/mo/Music/iTunes/iTunes Music/Various Artists/Lollipop Chainsaw- Music From The Video Game/07 Akira Yamaoka - Love For My Insane Lover(LAME MP3 (VBR-new quality 0.0)).mp3
Track gain               : -9.09 dB
Peak                     : 0.999817
CRC32 hash (test run)    : 0F62D8D8
CRC32 hash               : 0F62D8D8
CRC32 hash (skip zero)   : 42622C77
AccurateRip v1 signature : 82297C49
AccurateRip v2 signature : D84DB0DD
->Track not present in AccurateRip database.
Statistics
Read error                           : 0
Jitter error (maybe fixed)           : 0
Retry sector count                   : 0
Damaged sector count                 : 0
Track 08
Filename : /Users/mo/Music/iTunes/iTunes Music/Various Artists/Lollipop Chainsaw- Music From The Video Game/08 Akira Yamaoka - Zombie Tackle(LAME MP3 (CBR 320kbps)).mp3
/Users/mo/Music/iTunes/iTunes Music/Various Artists/Lollipop Chainsaw- Music From The Video Game/08 Akira Yamaoka - Zombie Tackle.flac
/Users/mo/Music/iTunes/iTunes Music/Various Artists/Lollipop Chainsaw- Music From The Video Game/08 Akira Yamaoka - Zombie Tackle(LAME MP3 (VBR-new quality 0.0)).mp3
Track gain               : -9.18 dB
Peak                     : 0.980133
CRC32 hash (test run)    : DB92E515
CRC32 hash               : DB92E515
CRC32 hash (skip zero)   : 1A8EC6FE
AccurateRip v1 signature : 7F2171E1
AccurateRip v2 signature : 15D6DF6D
->Track not present in AccurateRip database.
Statistics
Read error                           : 0
Jitter error (maybe fixed)           : 0
Retry sector count                   : 0
Damaged sector count                 : 0
Track 09
Filename : /Users/mo/Music/iTunes/iTunes Music/Various Artists/Lollipop Chainsaw- Music From The Video Game/09 Akira Yamaoka - Viking Zombies Sail On Lightning Seas(LAME MP3 (CBR 320kbps)).mp3
/Users/mo/Music/iTunes/iTunes Music/Various Artists/Lollipop Chainsaw- Music From The Video Game/09 Akira Yamaoka - Viking Zombies Sail On Lightning Seas.flac
/Users/mo/Music/iTunes/iTunes Music/Various Artists/Lollipop Chainsaw- Music From The Video Game/09 Akira Yamaoka - Viking Zombies Sail On Lightning Seas(LAME MP3 (VBR-new quality 0.0)).mp3
Track gain               : -9.04 dB
Peak                     : 0.982361
CRC32 hash (test run)    : 04E3104E
CRC32 hash               : 04E3104E
CRC32 hash (skip zero)   : 2DE1FB95
AccurateRip v1 signature : 7737B40E
AccurateRip v2 signature : EB852934
->Track not present in AccurateRip database.
Statistics
Read error                           : 0
Jitter error (maybe fixed)           : 0
Retry sector count                   : 0
Damaged sector count                 : 0
Track 10
Filename : /Users/mo/Music/iTunes/iTunes Music/Various Artists/Lollipop Chainsaw- Music From The Video Game/10 Akira Yamaoka - Zombie Guts(LAME MP3 (CBR 320kbps)).mp3
/Users/mo/Music/iTunes/iTunes Music/Various Artists/Lollipop Chainsaw- Music From The Video Game/10 Akira Yamaoka - Zombie Guts.flac
/Users/mo/Music/iTunes/iTunes Music/Various Artists/Lollipop Chainsaw- Music From The Video Game/10 Akira Yamaoka - Zombie Guts(LAME MP3 (VBR-new quality 0.0)).mp3
Track gain               : -8.80 dB
Peak                     : 0.966034
CRC32 hash (test run)    : 3E0EDE34
CRC32 hash               : 3E0EDE34
CRC32 hash (skip zero)   : 57F1392A
AccurateRip v1 signature : C53BCB4C
AccurateRip v2 signature : AF5FB8D8
->Track not present in AccurateRip database.
Statistics
Read error                           : 0
Jitter error (maybe fixed)           : 0
Retry sector count                   : 0
Damaged sector count                 : 0
Track 11
Filename : /Users/mo/Music/iTunes/iTunes Music/Various Artists/Lollipop Chainsaw- Music From The Video Game/11 Akira Yamaoka - Zombeef Burger(LAME MP3 (CBR 320kbps)).mp3
/Users/mo/Music/iTunes/iTunes Music/Various Artists/Lollipop Chainsaw- Music From The Video Game/11 Akira Yamaoka - Zombeef Burger.flac
/Users/mo/Music/iTunes/iTunes Music/Various Artists/Lollipop Chainsaw- Music From The Video Game/11 Akira Yamaoka - Zombeef Burger(LAME MP3 (VBR-new quality 0.0)).mp3
Track gain               : -8.61 dB
Peak                     : 0.882751
CRC32 hash (test run)    : AEFAA0E7
CRC32 hash               : AEFAA0E7
CRC32 hash (skip zero)   : 123760C5
AccurateRip v1 signature : 5D45E475
AccurateRip v2 signature : 60AAA782
->Track not present in AccurateRip database.
Statistics
Read error                           : 0
Jitter error (maybe fixed)           : 0
Retry sector count                   : 0
Damaged sector count                 : 0
Track 12
Filename : /Users/mo/Music/iTunes/iTunes Music/Various Artists/Lollipop Chainsaw- Music From The Video Game/12 Akira Yamaoka - Mirrorball Madhouse(LAME MP3 (CBR 320kbps)).mp3
/Users/mo/Music/iTunes/iTunes Music/Various Artists/Lollipop Chainsaw- Music From The Video Game/12 Akira Yamaoka - Mirrorball Madhouse.flac
/Users/mo/Music/iTunes/iTunes Music/Various Artists/Lollipop Chainsaw- Music From The Video Game/12 Akira Yamaoka - Mirrorball Madhouse(LAME MP3 (VBR-new quality 0.0)).mp3
Track gain               : -10.02 dB
Peak                     : 1.000000
CRC32 hash (test run)    : 6E8E5D9C
CRC32 hash               : 6E8E5D9C
CRC32 hash (skip zero)   : AEAE0261
AccurateRip v1 signature : B5830A51
AccurateRip v2 signature : 3DA23AEC
->Track not present in AccurateRip database.
Statistics
Read error                           : 0
Jitter error (maybe fixed)           : 0
Retry sector count                   : 0
Damaged sector count                 : 0
Track 13
Filename : /Users/mo/Music/iTunes/iTunes Music/Various Artists/Lollipop Chainsaw- Music From The Video Game/13 Akira Yamaoka - Rainbow Zombie Fever(LAME MP3 (CBR 320kbps)).mp3
/Users/mo/Music/iTunes/iTunes Music/Various Artists/Lollipop Chainsaw- Music From The Video Game/13 Akira Yamaoka - Rainbow Zombie Fever.flac
/Users/mo/Music/iTunes/iTunes Music/Various Artists/Lollipop Chainsaw- Music From The Video Game/13 Akira Yamaoka - Rainbow Zombie Fever(LAME MP3 (VBR-new quality 0.0)).mp3
Track gain               : -10.88 dB
Peak                     : 0.990234
CRC32 hash (test run)    : A2F8DD1C
CRC32 hash               : A2F8DD1C
CRC32 hash (skip zero)   : 9FEF54D2
AccurateRip v1 signature : 8C44EFF7
AccurateRip v2 signature : FDD29E80
->Track not present in AccurateRip database.
Statistics
Read error                           : 0
Jitter error (maybe fixed)           : 0
Retry sector count                   : 0
Damaged sector count                 : 0
Track 14
Filename : /Users/mo/Music/iTunes/iTunes Music/Various Artists/Lollipop Chainsaw- Music From The Video Game/14 Akira Yamaoka - Bowel Purge(LAME MP3 (CBR 320kbps)).mp3
/Users/mo/Music/iTunes/iTunes Music/Various Artists/Lollipop Chainsaw- Music From The Video Game/14 Akira Yamaoka - Bowel Purge.flac
/Users/mo/Music/iTunes/iTunes Music/Various Artists/Lollipop Chainsaw- Music From The Video Game/14 Akira Yamaoka - Bowel Purge(LAME MP3 (VBR-new quality 0.0)).mp3
Track gain               : -9.81 dB
Peak                     : 0.979980
CRC32 hash (test run)    : 87FC4656
CRC32 hash               : 87FC4656
CRC32 hash (skip zero)   : 01F33EAE
AccurateRip v1 signature : 0F050DB0
AccurateRip v2 signature : 5C1E4D07
->Track not present in AccurateRip database.
Statistics
Read error                           : 0
Jitter error (maybe fixed)           : 0
Retry sector count                   : 0
Damaged sector count                 : 0
Track 15
Filename : /Users/mo/Music/iTunes/iTunes Music/Various Artists/Lollipop Chainsaw- Music From The Video Game/15 Akira Yamaoka - Scattering Guts(LAME MP3 (CBR 320kbps)).mp3
/Users/mo/Music/iTunes/iTunes Music/Various Artists/Lollipop Chainsaw- Music From The Video Game/15 Akira Yamaoka - Scattering Guts.flac
/Users/mo/Music/iTunes/iTunes Music/Various Artists/Lollipop Chainsaw- Music From The Video Game/15 Akira Yamaoka - Scattering Guts(LAME MP3 (VBR-new quality 0.0)).mp3
Track gain               : -9.40 dB
Peak                     : 0.936707
CRC32 hash (test run)    : 8E97F638
CRC32 hash               : 8E97F638
CRC32 hash (skip zero)   : B7108352
AccurateRip v1 signature : E8EFBE81
AccurateRip v2 signature : FF8F406B
->Track not present in AccurateRip database.
Statistics
Read error                           : 0
Jitter error (maybe fixed)           : 0
Retry sector count                   : 0
Damaged sector count                 : 0
No errors occurred
End of status report

Код: Выделить всё
TITLE "Lollipop Chainsaw: Music From The Video Game"
REM GENRE "Soundtrack"
REM DATE "2012"
REM DISCNUMBER 1
REM TOTALDISCS 1
REM DISCID E50A370F
REM REPLAYGAIN_ALBUM_GAIN -9.79 dB
REM REPLAYGAIN_ALBUM_PEAK 1.000000
REM COMPILATION TRUE
FILE "01 The Chordettes - Lollipop(LAME MP3 (CBR 320kbps)).mp3" WAVE
TRACK 01 AUDIO
TITLE "Lollipop"
PERFORMER "The Chordettes"
REM REPLAYGAIN_TRACK_GAIN -8.12 dB
REM REPLAYGAIN_TRACK_PEAK 0.967834
INDEX 01 00:00:00
FILE "02 Arch Enemy - Nemesis(LAME MP3 (CBR 320kbps)).mp3" WAVE
TRACK 02 AUDIO
TITLE "Nemesis"
PERFORMER "Arch Enemy"
REM REPLAYGAIN_TRACK_GAIN -10.12 dB
REM REPLAYGAIN_TRACK_PEAK 0.977234
INDEX 01 00:00:00
FILE "03 Human League - Empire State Human(LAME MP3 (CBR 320kbps)).mp3" WAVE
TRACK 03 AUDIO
TITLE "Empire State Human"
PERFORMER "Human League"
REM REPLAYGAIN_TRACK_GAIN -8.03 dB
REM REPLAYGAIN_TRACK_PEAK 1.000000
INDEX 01 00:00:00
FILE "04 Various Artists - Stop Reading, Start Doing Pushups(LAME MP3 (CBR 320kbps)).mp3" WAVE
TRACK 04 AUDIO
TITLE "Stop Reading, Start Doing Pushups"
PERFORMER "Various Artists"
REM REPLAYGAIN_TRACK_GAIN -9.57 dB
REM REPLAYGAIN_TRACK_PEAK 0.954681
INDEX 01 00:00:00
FILE "05 Five Finger Death Punch - The Way Of The Fist (Explicit)(LAME MP3 (CBR 320kbps)).mp3" WAVE
TRACK 05 AUDIO
TITLE "The Way Of The Fist (Explicit)"
PERFORMER "Five Finger Death Punch"
REM REPLAYGAIN_TRACK_GAIN -9.25 dB
REM REPLAYGAIN_TRACK_PEAK 0.977234
INDEX 01 00:00:00
FILE "06 Buckner & Garcia - Pac Man Fever(LAME MP3 (CBR 320kbps)).mp3" WAVE
TRACK 06 AUDIO
TITLE "Pac Man Fever"
PERFORMER "Buckner & Garcia"
REM REPLAYGAIN_TRACK_GAIN -11.06 dB
REM REPLAYGAIN_TRACK_PEAK 1.000000
INDEX 01 00:00:00
FILE "07 Akira Yamaoka - Love For My Insane Lover(LAME MP3 (CBR 320kbps)).mp3" WAVE
TRACK 07 AUDIO
TITLE "Love For My Insane Lover"
PERFORMER "Akira Yamaoka"
REM REPLAYGAIN_TRACK_GAIN -9.09 dB
REM REPLAYGAIN_TRACK_PEAK 0.999817
INDEX 01 00:00:00
FILE "08 Akira Yamaoka - Zombie Tackle(LAME MP3 (CBR 320kbps)).mp3" WAVE
TRACK 08 AUDIO
TITLE "Zombie Tackle"
PERFORMER "Akira Yamaoka"
REM REPLAYGAIN_TRACK_GAIN -9.18 dB
REM REPLAYGAIN_TRACK_PEAK 0.980133
INDEX 01 00:00:00
FILE "09 Akira Yamaoka - Viking Zombies Sail On Lightning Seas(LAME MP3 (CBR 320kbps)).mp3" WAVE
TRACK 09 AUDIO
TITLE "Viking Zombies Sail On Lightning Seas"
PERFORMER "Akira Yamaoka"
REM REPLAYGAIN_TRACK_GAIN -9.04 dB
REM REPLAYGAIN_TRACK_PEAK 0.982361
INDEX 01 00:00:00
FILE "10 Akira Yamaoka - Zombie Guts(LAME MP3 (CBR 320kbps)).mp3" WAVE
TRACK 10 AUDIO
TITLE "Zombie Guts"
PERFORMER "Akira Yamaoka"
REM REPLAYGAIN_TRACK_GAIN -8.80 dB
REM REPLAYGAIN_TRACK_PEAK 0.966034
INDEX 01 00:00:00
FILE "11 Akira Yamaoka - Zombeef Burger(LAME MP3 (CBR 320kbps)).mp3" WAVE
TRACK 11 AUDIO
TITLE "Zombeef Burger"
PERFORMER "Akira Yamaoka"
REM REPLAYGAIN_TRACK_GAIN -8.61 dB
REM REPLAYGAIN_TRACK_PEAK 0.882751
INDEX 01 00:00:00
FILE "12 Akira Yamaoka - Mirrorball Madhouse(LAME MP3 (CBR 320kbps)).mp3" WAVE
TRACK 12 AUDIO
TITLE "Mirrorball Madhouse"
PERFORMER "Akira Yamaoka"
REM REPLAYGAIN_TRACK_GAIN -10.02 dB
REM REPLAYGAIN_TRACK_PEAK 1.000000
INDEX 01 00:00:00
FILE "13 Akira Yamaoka - Rainbow Zombie Fever(LAME MP3 (CBR 320kbps)).mp3" WAVE
TRACK 13 AUDIO
TITLE "Rainbow Zombie Fever"
PERFORMER "Akira Yamaoka"
REM REPLAYGAIN_TRACK_GAIN -10.88 dB
REM REPLAYGAIN_TRACK_PEAK 0.990234
INDEX 01 00:00:00
FILE "14 Akira Yamaoka - Bowel Purge(LAME MP3 (CBR 320kbps)).mp3" WAVE
TRACK 14 AUDIO
TITLE "Bowel Purge"
PERFORMER "Akira Yamaoka"
REM REPLAYGAIN_TRACK_GAIN -9.81 dB
REM REPLAYGAIN_TRACK_PEAK 0.979980
INDEX 01 00:00:00
FILE "15 Akira Yamaoka - Scattering Guts(LAME MP3 (CBR 320kbps)).mp3" WAVE
TRACK 15 AUDIO
TITLE "Scattering Guts"
PERFORMER "Akira Yamaoka"
REM REPLAYGAIN_TRACK_GAIN -9.40 dB
REM REPLAYGAIN_TRACK_PEAK 0.936707
INDEX 01 00:00:00

   
Торрент: Зарегистрирован [26 дек 2012, 00:23] Soundtracks Скачать торрент Магнет ссылка
Скачать торрент
[ Размер 13.98 КБ / Просмотров 200 ]
Статус:
Проверен
 
.torrent скачан: 0 раз
Размер: 309.24 МБ (324 261 762 байт)
   
 
 
Цитата

Вернуться в Soundtracks

Кто сейчас на конференции

Сейчас эту тему просматривают: нет зарегистрированных пользователей и гости: 1