Ищу человека (Михаил Богин) [1973, драма, экранизация, DVB]

 Статистика раздачи 
Размер: 1.97 ГБ   |  Зарегистрирован: 07 май 2018, 03:42   |   .torrent скачан: 0 раз
Сидеров: 1  [ 0 байт/сек ]     Личеров: 3  [ 0 байт/сек ]  
  
Аватара пользователя
 
Раздал: 229.37 ГБ
Скачал: 423.89 ГБ
Ратио: 0.621
Сообщения: 183802
Стаж: 7 лет 4 месяца 6 дней

Ищу человека
Жанр: драма, экранизация
Год выпуска: 1973
Продолжительность: 01:29:07
Режиссёр: Михаил Богин
В ролях: Олег Жаков, Римма Мануковская, Элеонора Александрова, Людмила Антонюк, Геннадий Ялович, Алла Мещерякова, Наталья Гундарева, Олег Балакин, Наталия Журавель, Алексей Чернов, Антонина Богданова, Людмила Крячун, Ольга Григорьева, Полина Куманченко, Раиса Рязанова, Елизавета Уварова, Тамара Дегтярёва, Агния Елекоева, Лия Ахеджакова, Маргарита Лифанова, Герман Журавлёв, Игорь Добряков, С. Клейменова, Аркадий Трусов, Галина Морачева
Описание: В основе фильма, поставленного по одноименной книге и по циклу радиопередач писательницы Агнии Барто, - подлинные истории о разлуках и встречах, о поисках близких, продолжавшихся много лет после войны, о людях, кто верит, что благодаря многолетним поискам родные и близкие, разлученные в годы войны, найдут друг друга...
Доп. информация: Запись потока *.ts со спутника ABS-2, ремукс в *.mpg программой VideoReDo.
Семпл: http://multi-up.com/971049
Качество видео: DVB
Формат видео: MPEG-PS
Видео: MPEG Video, 704(768)x576 (4:3), 25,000 кадров/сек, 2 905 Кбит/сек
Аудио: MPEG Audio, 48,0 КГц, 192 Кбит/сек, 2 канала
General
Complete name : D:\TEMP\ИЩУ ЧЕЛОВЕКА (Zvezda).mpg
Format : MPEG-PS
File size : 1.97 GiB
Duration : 1h 29mn
Overall bit rate mode : Variable
Overall bit rate : 3 160 Kbps
Video
ID : 224 (0xE0)
Format : MPEG Video
Format version : Version 2
Format profile : Main@Main
Format settings, BVOP : No
Format settings, Matrix : Custom
Format settings, GOP : Variable
Duration : 1h 29mn
Bit rate mode : Variable
Bit rate : 2 905 Kbps
Maximum bit rate : 15.0 Mbps
Width : 704 pixels
Height : 576 pixels
Display aspect ratio : 4:3
Frame rate : 25.000 fps
Standard : PAL
Color space : YUV
Chroma subsampling : 4:2:0
Bit depth : 8 bits
Scan type : Interlaced
Scan order : Top Field First
Compression mode : Lossy
Bits/(Pixel*Frame) : 0.287
Time code of first frame : 00:00:00:00
Time code source : Group of pictures header
Stream size : 1.81 GiB (92%)
Audio
ID : 192 (0xC0)
Format : MPEG Audio
Format version : Version 1
Format profile : Layer 2
Duration : 1h 29mn
Bit rate mode : Constant
Bit rate : 192 Kbps
Channel count : 2 channels
Sampling rate : 48.0 KHz
Compression mode : Lossy
Delay relative to video : 22ms
Stream size : 122 MiB (6%)


Не забывайте говорить Спасибо. Не уходите с раздачи!   
Торрент: Зарегистрирован [07 май 2018, 03:42] Для скачивания .torrent
необходима регистрация
Или скачать с помощью
MediaGet
Статус:
Проверен
 
.torrent скачан: 0 раз
Хэш: 2de9ebb3916da4585bd8595202419d5feea45514
Размер: 1.97 ГБ (2 112 448 512 байт)
   Стать Автором раздачи
   
Цитата
  • Похожие торренты
    Ответы
    Просмотры
    Последнее сообщение

Вернуться в Кино СССР (Rips)

Кто сейчас на конференции

Сейчас эту тему просматривают: нет зарегистрированных пользователей и гости: 1