Город Зеркал / Arshinagar (Апарна Сен / Aparna Sen) [2015, Индия, Драма, WEBRip] VO (Юлия Семыкина) + Original (Ben) + Sub Rus

 Статистика раздачи 
Размер: 2.64 ГБ   |  Зарегистрирован: 06 май 2018, 18:09   |   .torrent скачан: 1 раз
Сидеров: 8  [ 0 байт/сек ]     Личеров: 2  [ 0 байт/сек ]  
  
Аватара пользователя
 
Раздал: 25.11 ГБ
Скачал: 416.25 ГБ
Ратио: 0.140
Сообщения: 176794
Стаж: 7 лет 9 дней

Город Зеркал / Arshinagar

Страна: Индия
Жанр: Драма
Год выпуска: 2015
Продолжительность: 02:31:18
Перевод: Одноголосый закадровый - Юлия Семыкина
Субтитры: Русские (#полные, #песни)
Оригинальная аудиодорожка:: Бенгальский
Режиссер: Апарна Сен / Aparna Sen
В ролях: Дев, Риттика Сен, Джишу Сенгупта, Вахида Рехман, Анирбан Бхаттачарья, Камалешвар Мукхерджи, Свагата Мукерджи, Коушик Сен, Рупа Гангули, Парвати Баул, Шанкар Чакраборти, Апараджита Адхья, Джая Сиал Гхош, Паран Бандопадхай, Париджат Чаудхари, Рахул Банерджи, Приянка Саркар, Аниндья Банерджи, Субхашиш Мукерджи, Шантилал Мукерджи.
Описание: Казалось бы, что можно сказать нового, взяв такую набившую оскомину историю, как «Ромео и Джульетта»? Но Апарна Сен смогла. Собственно, из трагедии Шекспира она взяла только основу (да и то не всю), расширила и дополнила её, добавила массу смысла, и получилось необычное, разноплановое, умное, глубокое, даже философское произведение.
IMDb
Качество видео: WEBRip
Формат видео: MKV
Видео Кодек: x.265/HEVC
Аудио Кодек: AC3
Видео: 1280x544, 23.976 fps, X265, 1 553 kbps
Аудио #1: 48 kHz, AC3, 6 ch, 448 kbps [Russian]
Аудио #2: 48 kHz, AC3, 6 ch, 448 kbps [Bengali]
Перевод, озвучка и сведение звука: Юлия Семыкина.
В двух местах перевод Пастернака Б. Л.


Сэмпл / Sample




General
Unique ID : 250436261092355988430919667449207755294 (0xBC6844FA01F8FF8A87A40FFB63FC921E)
Complete name : F:\1_1\Arshinagar (2015)-720p-HEVC\Arshinagar (2015)-720p-HEVC.mkv
Format : Matroska
Format version : Version 4 / Version 2
File size : 2.64 GiB
Duration : 2h 31mn
Overall bit rate : 2 499 Kbps
Encoded date : UTC 2018-03-30 13:49:05
Writing application : mkvmerge v9.2.0 ('Photograph') 64bit
Writing library : libebml v1.3.3 + libmatroska v1.4.4
DURATION : 02:27:38.200000000
NUMBER_OF_FRAMES : 1853
NUMBER_OF_BYTES : 86676
_STATISTICS_WRITING_APP : mkvmerge v9.2.0 ('Photograph') 64bit
_STATISTICS_WRITING_DATE_UT : 2018-03-30 13:49:05
_STATISTICS_TAGS : BPS DURATION NUMBER_OF_FRAMES NUMBER_OF_BYTES
Video
ID : 1
Format : HEVC
Format/Info : High Efficiency Video Coding
Format profile : Main [email protected]@Main
Codec ID : V_MPEGH/ISO/HEVC
Duration : 2h 31mn
Bit rate : 1 553 Kbps
Width : 1 280 pixels
Height : 544 pixels
Display aspect ratio : 2.35:1
Frame rate mode : Constant
Frame rate : 23.976 fps
Color space : YUV
Chroma subsampling : 4:2:0
Bit depth : 10 bits
Bits/(Pixel*Frame) : 0.093
Stream size : 1.64 GiB (62%)
Writing library : x265 1.9+88-b6d8e66e7f71:[Windows][GCC 5.3.0][64 bit] 10bit
Encoding settings : wpp / ctu=64 / min-cu-size=8 / max-tu-size=32 / tu-intra-depth=1 / tu-inter-depth=1 / me=0 / subme=2 / merange=57 / no-rect / no-amp / max-merge=1 / temporal-mvp / early-skip / rdpenalty=0 / no-tskip / no-tskip-fast / strong-intra-smoothing / no-lossless / no-cu-lossless / no-constrained-intra / fast-intra / open-gop / no-temporal-layers / interlace=0 / keyint=250 / min-keyint=23 / scenecut=40 / rc-lookahead=25 / lookahead-slices=0 / bframes=4 / bframe-bias=0 / b-adapt=2 / ref=1 / limit-refs=0 / limit-modes / weightp / no-weightb / aq-mode=2 / qg-size=32 / aq-strength=2.00 / cbqpoffs=0 / crqpoffs=0 / rd=2 / psy-rd=1.00 / rdoq-level=2 / psy-rdoq=1.00 / no-rd-refine / signhide / deblock=2:2 / sao / no-sao-non-deblock / b-pyramid / cutree / no-intra-refresh / rc=abr / bitrate=1609 / qcomp=0.60 / qpmin=0 / qpmax=51 / qpstep=4 / ipratio=1.40 / pbratio=1.30
Default : Yes
Forced : No
Audio #1
ID : 2
Format : AC-3
Format/Info : Audio Coding 3
Mode extension : CM (complete main)
Format settings, Endianness : Big
Codec ID : A_AC3
Duration : 2h 31mn
Bit rate mode : Constant
Bit rate : 448 Kbps
Channel(s) : 6 channels
Channel positions : Front: L C R, Side: L R, LFE
Sampling rate : 48.0 KHz
Compression mode : Lossy
Stream size : 485 MiB (18%)
Language : Russian
Default : Yes
Forced : No
Audio #2
ID : 4
Format : AC-3
Format/Info : Audio Coding 3
Mode extension : CM (complete main)
Format settings, Endianness : Big
Codec ID : A_AC3
Duration : 2h 31mn
Bit rate mode : Constant
Bit rate : 448 Kbps
Channel(s) : 6 channels
Channel positions : Front: L C R, Side: L R, LFE
Sampling rate : 48.0 KHz
Compression mode : Lossy
Stream size : 485 MiB (18%)
Language : Bengali
Default : No
Forced : No
Text #1
ID : 3
Format : UTF-8
Codec ID : S_TEXT/UTF8
Codec ID/Info : UTF-8 Plain Text
Title : песни
Language : Russian
Default : Yes
Forced : No
Text #2
ID : 5
Format : UTF-8
Codec ID : S_TEXT/UTF8
Codec ID/Info : UTF-8 Plain Text
Title : полные
Language : Russian
Default : No
Forced : No
Menu
00:00:00.000 : en:Chapter 01
00:03:55.500 : en:Chapter 02
00:13:08.000 : en:Chapter 03
00:16:05.000 : en:Chapter 04
00:18:05.500 : en:Chapter 05
00:34:20.000 : en:Chapter 06
00:38:36.000 : en:Chapter 07
00:41:14.500 : en:Chapter 08
00:50:00.000 : en:Chapter 09
00:54:08.000 : en:Chapter 10
00:57:49.500 : en:Chapter 11
00:59:03.500 : en:Chapter 12
01:02:44.000 : en:Chapter 13
01:05:14.000 : en:Chapter 14
01:10:39.000 : en:Chapter 15
01:15:56.500 : en:Chapter 16
01:16:10.500 : en:Chapter 17
01:31:08.500 : en:Chapter 18
01:33:47.000 : en:Chapter 19
01:34:57.000 : en:Chapter 20
01:36:39.000 : en:Chapter 21
01:40:21.500 : en:Chapter 22
01:46:07.000 : en:Chapter 23
02:07:52.500 : en:Chapter 24
02:27:46.000 : en:Chapter 25
02:30:37.000 : en:Chapter 26
02:31:09.367 : en:Chapter 27
   
Торрент: Зарегистрирован [06 май 2018, 18:09] Индийское кино Скачать торрент Магнет ссылка
Скачать торрент
[ Размер 13.67 КБ / Просмотров 16 ]
Статус:
Проверен
 
.torrent скачан: 1 раз
Размер: 2.64 ГБ (2 835 374 770 байт)
   Стать Автором раздачи
 
 
Цитата
  • Похожие торренты
    Ответы
    Просмотры
    Последнее сообщение

Вернуться в Индийское кино

Кто сейчас на конференции

Сейчас эту тему просматривают: нет зарегистрированных пользователей и гости: 1