Послушай... Амайя / Listen... Amaya (Авинаш Кумар Сингх / Avinash Kumar Singh) [2013, Индия, Драма, комедия, HDTVRip] DVO

 Статистика раздачи 
Размер: 1.38 ГБ   |  Зарегистрирован: 06 май 2018, 18:08   |   .torrent скачан: 0 раз
Сидеров: 4  [ 0 байт/сек ]     Личеров: 1  [ 0 байт/сек ]  
  
Аватара пользователя
 
Раздал: 229.86 ГБ
Скачал: 427.97 ГБ
Ратио: 0.617
Сообщения: 184957
Стаж: 7 лет 5 месяцев 4 дня

Послушай... Амайя / Listen... Amaya
Страна: Индия
Студия: Turtle on a Hammock Films
Жанр: Драма, комедия
Год выпуска: 2017
Продолжительность: 01:54:10
Перевод: Профессиональный (двухголосый закадровый)
Субтитры: Нет
Оригинальная аудиодорожка: Нет
Режиссер: Авинаш Кумар Сингх / Avinash Kumar Singh
В ролях: Свара Бхаскар, Фарук Шайх, Дипти Навал, Амала Акинени, Сиддхант Карник, Ороон Дас, Крити Пант, Видья Бхушан, Вирен Басоя, Асрита
Описание: История вдовы Лилы (Дипти Навал) и эгоистичной самовлюблённой дочери Амайи (Свара Бхаскар). Дочь никак не может смириться с появлением в жизни матери нового мужчины фотографа Джаянта (Фарук Шейх), который к всему прочему является коллегой молодой девушки.
Дополнительная информация:
Автор релиза -
Источник аудио и видео для рипа - моя запись с т/к Bollywood HD
Рекламы нет!


Сэмпл: https://yadi.sk/i/IU9ILPpa3UTnNy
Качество видео: HDTVRip
Формат видео: AVI
Видео: XviD, 720x304 (2,35:1), 25.000 fps, 1691 kbps, 0.309 bit/pixel
Аудио: Русский AC3, 48000 Гц, 2ch, 192 kbps
Код: Выделить всё
Общее
Полное имя                               : D:\Listen...Amaya.2013.HDTVRip-ylnian.avi
Формат                                   : AVI
Формат/Информация                        : Audio Video Interleave
Размер файла                             : 1,38 Гбайт
Продолжительность                        : 1 ч. 44 м.
Общий поток                              : 1892 Кбит/сек
Программа кодирования                    : VirtualDubMod 1.5.10.2 (build 2540/release)
Библиотека кодирования                   : VirtualDubMod build 2540/release
Видео
Идентификатор                            : 0
Формат                                   : MPEG-4 Visual
Профиль формата                          : Advanced Simple@L5
Настройки формата                        : BVOP1
Параметр BVOP формата                    : 1
Параметр QPel формата                    : Нет
Параметр GMC формата                     : Без точки перехода
Параметр матрицы формата                 : Default (MPEG)
Идентификатор кодека                     : XVID
Идентификатор кодека/Подсказка           : XviD
Продолжительность                        : 1 ч. 44 м.
Битрейт                                  : 1691 Кбит/сек
Ширина                                   : 720 пикселей
Высота                                   : 304 пикселя
Соотношение сторон                       : 2,35:1
Частота кадров                           : 25,000 кадров/сек
Цветовое пространство                    : YUV
Субдискретизация насыщенности            : 4:2:0
Битовая глубина                          : 8 бит
Тип развёртки                            : Прогрессивная
Метод сжатия                             : С потерями
Бит/(Пиксели*Кадры)                      : 0.309
Размер потока                            : 1,23 Гбайт (89%)
Библиотека кодирования                   : XviD 67
Аудио
Идентификатор                            : 1
Формат                                   : AC-3
Формат/Информация                        : Audio Coding 3
Идентификатор кодека                     : 2000
Продолжительность                        : 1 ч. 44 м.
Вид битрейта                             : Постоянный
Битрейт                                  : 192 Кбит/сек
Каналы                                   : 2 канала
Расположение каналов                     : Front: L R
Частота                                  : 48,0 КГц
Частота кадров                           : 31,250 кадров/сек (1536 SPF)
Битовая глубина                          : 16 бит
Метод сжатия                             : С потерями
Размер потока                            : 143 Мбайт (10%)
Выравнивание                             : Разделение по промежуткам
Продолжительность промежутка             : 40  мс. (1,00 видеокадр)
Время предзагрузки промежутка            : 500  мс.
ServiceKind/String                       : Complete Main
Не забывайте говорить Спасибо. Не уходите с раздачи!   
Торрент: Зарегистрирован [06 май 2018, 18:08] Для скачивания .torrent
необходима регистрация
Или скачать с помощью
MediaGet
Статус:
Проверен
 
.torrent скачан: 0 раз
Хэш: a7724610c15442dd33a7829746777ee29c9c626a
Размер: 1.38 ГБ (1 479 211 008 байт)
   Стать Автором раздачи
   
Цитата
  • Похожие торренты
    Ответы
    Просмотры
    Последнее сообщение

Вернуться в Индийское кино

Кто сейчас на конференции

Сейчас эту тему просматривают: нет зарегистрированных пользователей и гости: 1