В помощь любителю компьютера. Создание собственной сборки Windows XP (Слава Ли) [2011, обучающее видео, видеоуроки, PCRip]

 Статистика раздачи 
Размер: 535.19 МБ   |  Зарегистрирован: 29 ноя 2012, 11:49   |   .torrent скачан: 1 раз
Сидеров: 0  [ 0 байт/сек ]     Личеров: 8  [ 0 байт/сек ]  
  
Аватара пользователя
Администратор
Администратор
 
Раздал: 24.48 ТБ
Скачал: 388.83 ГБ
Ратио: 145.347
Сообщения: 6101
Стаж: 7 лет 9 месяцев 6 дней
Откуда: Lithuania

В помощь любителю компьютера. Создание собственной сборки Windows XP


Оригинальное название: В помощь любителю компьютера. Создание собственной сборки Windows XP
Дата выхода: 2012
Страна: Россия
Жанр: Обучающее видео
Перевод: Оригинал
Продолжительность: 7 х 00:04:00
Режиссёр: Слава Ли
Скомпонуйте Windows XP по своим интересам с помощью Славы Ли.
Качество: PCRip
Формат видео: H.264
Формат аудио: AAC
Видео: 1-3 1280x720 (16:9), 30 fps, 321 kbps, 0.012 bit/pixel
Видео2: 4-7 984x720 (1.36:1), 30 fps, 1503 kbps, 0.071 bit/pixel
аудио: 1-7 44.1 kHz, 2 ch, 41,4- 52,0 kbps
Исполнитель: Слава Ли
Общее, видео 1,2
Полное имя : Создание мегасборки Windows XP1. Вступление, подготовка.mp4
Формат : MPEG-4
Профиль формата : Base Media / Version 2
Идентификатор кодека : mp42
Размер файла : 14,7 Мбайт
Продолжительность : 5 м. 9 с.
Общий поток : 397 Кбит/сек
Дата кодирования : UTC 2011-04-09 16:46:11
Дата пометки : UTC 2011-04-09 16:46:11

Видео
Идентификатор : 1
Формат : AVC
Формат/Информация : Advanced Video Codec
Профиль формата : [email protected]
Параметр CABAC формата : Да
Параметр ReFrames формата : 4 кадра
Идентификатор кодека : avc1
Идентификатор кодека/Информация : Advanced Video Coding
Продолжительность : 5 м. 9 с.
Продолжительность оригинала : 5 м. 9 с.
Вид битрейта : Переменный
Битрейт : 321 Кбит/сек
Ширина : 1280 пикселей
Высота : 720 пикселей
Соотношение сторон : 16:9
Режим частоты кадров : Постоянный
Частота кадров : 30,000 кадров/сек
Стандарт вещания : NTSC
Цветовое пространство : YUV
Субдискретизация насыщенности : 4:2:0
Битовая глубина : 8 бит
Тип развёртки : Прогрессивная
Бит/(Пиксели*Кадры) : 0.012
Размер потока : 11,8 Мбайт (81%)
Размер потока оригинала : 12,6 Мбайт (86%)
Язык : English
Дата кодирования : UTC 2011-04-09 16:46:11
Дата пометки : UTC 2011-04-09 16:46:11
mdhd_Duration : 309379
Основные цвета : BT.709-5, BT.1361, IEC 61966-2-4, SMPTE RP177
Характеристики трансфера : BT.709-5, BT.1361
Коэффициенты матрицы : BT.709-5, BT.1361, IEC 61966-2-4 709, SMPTE RP177

Аудио
Идентификатор : 2
Формат : AAC
Формат/Информация : Advanced Audio Codec
Профиль формата : LC
Идентификатор кодека : 40
Продолжительность : 5 м. 9 с.
Продолжительность оригинала : 5 м. 9 с.
Вид битрейта : Постоянный
Битрейт : 52,0 Кбит/сек
Каналы : 2 канала
Расположение каналов : Front: L R
Частота : 44,1 КГц
Метод сжатия : С потерями
Размер потока : 1,92 Мбайт (13%)
Размер потока оригинала : 1,92 Мбайт (13%)
Язык : English
Дата кодирования : UTC 2011-04-09 16:46:11
Дата пометки : UTC 2011-04-09 16:46:11
mdhd_Duration : 309427

Общее видео 3,4
Полное имя : Создание мегасборки Windows XP4. Удаление компонентов.mp4
Формат : MPEG-4
Профиль формата : Base Media / Version 2
Идентификатор кодека : mp42
Размер файла : 33,3 Мбайт
Продолжительность : 2 м. 52 с.
Общий поток : 1617 Кбит/сек
Дата кодирования : UTC 2011-04-09 13:42:37
Дата пометки : UTC 2011-04-09 13:42:37

Видео
Идентификатор : 1
Формат : AVC
Формат/Информация : Advanced Video Codec
Профиль формата : [email protected]
Параметр CABAC формата : Да
Параметр ReFrames формата : 4 кадра
Идентификатор кодека : avc1
Идентификатор кодека/Информация : Advanced Video Coding
Продолжительность : 2 м. 52 с.
Продолжительность оригинала : 2 м. 52 с.
Вид битрейта : Переменный
Битрейт : 1503 Кбит/сек
Ширина : 982 пикселя
Высота : 720 пикселей
Соотношение сторон : 4:3
Режим частоты кадров : Постоянный
Частота кадров : 30,000 кадров/сек
Стандарт вещания : NTSC
Цветовое пространство : YUV
Субдискретизация насыщенности : 4:2:0
Битовая глубина : 8 бит
Тип развёртки : Прогрессивная
Бит/(Пиксели*Кадры) : 0.071
Размер потока : 31,0 Мбайт (93%)
Размер потока оригинала : 32,4 Мбайт (97%)
Язык : English
Дата кодирования : UTC 2011-04-09 13:42:37
Дата пометки : UTC 2011-04-09 13:42:37
mdhd_Duration : 172808
Основные цвета : BT.709-5, BT.1361, IEC 61966-2-4, SMPTE RP177
Характеристики трансфера : BT.709-5, BT.1361
Коэффициенты матрицы : BT.709-5, BT.1361, IEC 61966-2-4 709, SMPTE RP177

Аудио
Идентификатор : 2
Формат : AAC
Формат/Информация : Advanced Audio Codec
Профиль формата : LC
Идентификатор кодека : 40
Продолжительность : 2 м. 52 с.
Продолжительность оригинала : 2 м. 52 с.
Вид битрейта : Постоянный
Битрейт : 41,4 Кбит/сек
Каналы : 2 канала
Расположение каналов : Front: L R
Частота : 44,1 КГц
Метод сжатия : С потерями
Размер потока : 873 Кбайт (3%)
Размер потока оригинала : 873 Кбайт (3%)
Язык : English
Дата кодирования : UTC 2011-04-09 13:42:37
Дата пометки : UTC 2011-04-09 13:42:37
mdhd_Duration : 172824




   
Торрент: Зарегистрирован [29 ноя 2012, 11:49] Скачать торрент Магнет ссылка
Скачать торрент
[ Размер 11.85 КБ / Просмотров 216 ]
Статус:
Проверен
 
.torrent скачан: 1 раз
Размер: 535.19 МБ (561 182 916 байт)
   Стать Автором раздачи
 
 
Цитата
  • Похожие торренты
    Ответы
    Просмотры
    Последнее сообщение

Вернуться в Программирование

Кто сейчас на конференции

Сейчас эту тему просматривают: нет зарегистрированных пользователей и гости: 1