Как удалить баннер-вымогателей денег [2011, Видеоурок, TVRip]

 Статистика раздачи 
Размер: 105.46 МБ   |  Зарегистрирован: 29 ноя 2012, 11:25   |   .torrent скачан: 2 раз
Сидеров: 0  [ 0 байт/сек ]     Личеров: 81  [ 0 байт/сек ]  
  
Аватара пользователя
Администратор
Администратор
 
Раздал: 24.48 ТБ
Скачал: 388.83 ГБ
Ратио: 145.347
Сообщения: 6101
Стаж: 7 лет 9 месяцев 10 дней
Откуда: Lithuania

Как удалить баннер-вымогателей денег


Оригинальное название: Как удалить баннер-вымогателей денег
Дата выхода: 2012
Страна: Россия
Жанр: Обучающее видео
Перевод: Оригинал
Продолжительность: 00:12:35
Режиссёр: неизвестен

Описание:
Пошаговая инструкция поможет Вам, как правильно удалить баннер, который появился на Вашем мониторе и требует отправки SMS за деньги для разблокировки компьютера. Смотрим, делаем, как сказано.


Качество: TVRip
Формат видео: mpg
Формат аудио: MP3
Видео: 1280x720 (16:9), 23,976 fps, ~1020 kbps avg, 0.046 bit/pixel
44,1 kHz, 2 ch, ~128.00 kbps avg

General
Complete name : D:\PROGRAMS\Как удалить баннер-вымогатель.mpg
Format : MPEG-PS
File size : 105 MiB
Duration : 12mn 35s
Overall bit rate mode : Variable
Overall bit rate : 1 171 Kbps

Video
ID : 224 (0xE0)
Format : MPEG Video
Commercial name : HDV 720p
Format version : Version 2
Format profile : [email protected] 1440
Format settings, BVOP : No
Format settings, Matrix : Default
Format settings, GOP : M=1, N=12
Duration : 12mn 35s
Bit rate mode : Variable
Bit rate : 1 020 Kbps
Width : 1 280 pixels
Height : 720 pixels
Display aspect ratio : 16:9
Frame rate : 23.976 fps
Color space : YUV
Chroma subsampling : 4:2:0
Bit depth : 8 bits
Scan type : Progressive
Compression mode : Lossy
Bits/(Pixel*Frame) : 0.046
Stream size : 91.8 MiB (87%)

Audio
ID : 192 (0xC0)
Format : MPEG Audio
Format version : Version 1
Format profile : Layer 2
Duration : 12mn 35s
Bit rate mode : Constant
Bit rate : 128 Kbps
Channel(s) : 2 channels
Sampling rate : 44.1 KHz
Compression mode : Lossy
Stream size : 11.5 MiB (11%)




   
Торрент: Зарегистрирован [29 ноя 2012, 11:25] Скачать торрент Магнет ссылка
Скачать торрент
[ Размер 17.01 КБ / Просмотров 323 ]
Статус:
Проверен
 
.torrent скачан: 2 раз
Размер: 105.46 МБ (110 587 904 байт)
   Стать Автором раздачи
 
 
Цитата
  • Похожие торренты
    Ответы
    Просмотры
    Последнее сообщение

Вернуться в Компьютерные сети и безопасность

Кто сейчас на конференции

Сейчас эту тему просматривают: нет зарегистрированных пользователей и гости: 1